<?xml version="1.0" standalone="no"?>
<!DOCTYPE svg PUBLIC "-//W3C//DTD SVG 1.1//EN" "http://www.w3.org/Graphics/SVG/1.1/DTD/svg11.dtd" >
<svg xmlns="http://www.w3.org/2000/svg" xmlns:xlink="http://www.w3.org/1999/xlink" version="1.1">
<metadata></metadata>
<defs>
<font id="porto" horiz-adv-x="1000" >
  <font-face 
    font-family="2203172336-porto"
    font-weight="400"
    font-stretch="normal"
    units-per-em="1000"
    panose-1="2 0 5 3 0 0 0 0 0 0"
    ascent="850"
    descent="-150"
    bbox="-0.0160215 -176.571 1063 812"
    underline-thickness="0"
    underline-position="10"
    unicode-range="U+E700-F87B"
  />
<missing-glyph 
 />
    <glyph glyph-name=".notdef" 
 />
    <glyph glyph-name="cart-thick" unicode="&#xe700;" horiz-adv-x="891" 
d="M709 580q-5 43 -24.5 82t-50.5 70q-38 37 -86 57t-100 20h-4q-52 0 -99.5 -20t-85.5 -57q-31 -30 -50.5 -69.5t-25.5 -82.5h-173v-579q0 -48 24 -88.5t64.5 -64.5t88.5 -24h519q48 0 88.5 24t64.5 64.5t24 88.5v579h-174zM444 743h4q48 0 89.5 -21.5t69.5 -58.5t36 -83
h-394q8 46 36 83t69.5 58.5t89.5 21.5zM817 1q0 -30 -15 -56t-40.5 -41t-55.5 -15h-519q-31 0 -56.5 15t-40.5 40.5t-15 56.5v513h116v-100q0 -9 6.5 -16t16.5 -7h11q10 0 16.5 7t6.5 16v100h406v-100q0 -9 6.5 -16t16.5 -7h12q9 0 16 7t7 16v100h105v-513z" />
    <glyph glyph-name="check-circle" unicode="&#xe701;" 
d="M914 391q-15 0 -25 -10t-10 -24v-41q0 -109 -55 -202q-53 -90 -144 -143q-93 -55 -202 -55v0q-80 0 -153 30.5t-130 87t-87 129.5t-30 154q0 108 55 201q53 91 144 144q93 55 201 55h1q84 0 162 -35q13 -6 26.5 -1t19.5 18.5t1 27t-18 19.5q-90 40 -191 40h-1
q-127 0 -237 -64q-106 -62 -169 -168q-64 -110 -64 -237q0 -94 35.5 -180t102 -153t152 -102.5t180.5 -35.5v0q127 0 237 64q106 63 169 169q64 110 64 237v41q0 14 -10 24t-24 10zM982 732q-10 11 -24.5 11t-25.5 -11l-454 -454l-106 106q-10 11 -24 11t-24.5 -10.5
t-10.5 -24.5t10 -25l131 -131q10 -10 23.5 -10t25.5 10l479 479q10 11 10 25t-10 24z" />
    <glyph glyph-name="envelope" unicode="&#xe702;" 
d="M866 637h-732q-33 0 -61 -16.5t-44.5 -44.5t-16.5 -61v-397q0 -33 16.5 -61t44.5 -44.5t61 -16.5h732q33 0 61 16.5t44.5 44.5t16.5 61v397q0 33 -16.5 61t-44.5 44.5t-61 16.5zM73 477l213 -161l-213 -160v321zM866 57h-732q-25 0 -43 18t-18 43l239 179l133 -100
q24 -18 55 -18t55 18l133 100l239 -179q0 -25 -17.5 -43t-43.5 -18zM927 156l-213 160l213 161v-321zM537 222q-16 -12 -36.5 -12t-37.5 12l-390 293q0 25 18 43t43 18h732q25 0 43 -18t18 -43z" />
    <glyph glyph-name="business-book" unicode="&#xe703;" horiz-adv-x="772" 
d="M677 784h-671v-935h671q37 0 63 26t26 63v757q0 37 -26 63t-63 26zM67 723h56v-813h-56v813zM705 -62q0 -12 -8 -20t-20 -8h-493v813h493q12 0 20 -8.5t8 -19.5v-757zM239 432h411v235h-411v-235zM300 606h289v-114h-289v114zM445 143h174v-61h-174v61zM328 27h291v-61
h-291v61z" />
    <glyph glyph-name="long-arrow-right" unicode="&#xe704;" horiz-adv-x="772" 
d="M617 450l-22 -21l97 -97h-671v-31h671l-97 -97l22 -22l134 134z" />
    <glyph glyph-name="percent-shape" unicode="&#xe705;" horiz-adv-x="772" 
d="M380 428q0 29 -14.5 53.5t-38.5 38.5t-53 14t-53 -14t-38 -38.5t-14 -53.5t14 -53t38 -38t53 -14t53 14t38.5 38.5t14.5 52.5zM230 428q0 19 13 32t31 13t31.5 -13t13.5 -32t-13 -31.5t-32 -12.5t-31.5 13t-12.5 31zM498 310q-28 0 -52.5 -14.5t-38.5 -38.5t-14 -53
t14 -53t38 -38t53 -14t53 14t38.5 38.5t14.5 53t-14.5 52.5t-38.5 38.5t-53 14.5zM498 160q-18 0 -31 13t-13 31t13 31.5t31 13.5t31.5 -13t13.5 -32t-13 -31.5t-32 -12.5zM505 492q-10 7 -22.5 5t-19.5 -13l-204 -301q-7 -11 -4.5 -23.5t12.5 -19.5q10 -5 17 -5q17 0 26 14
l203 301q7 10 5 22.5t-13 19.5zM748 316q0 25 9 66v3q8 48 8 72q0 40 -17 69.5t-54 49.5q-21 12 -67 29h-1q-38 14 -59 25q-13 8 -40 30l-9 8q-38 33 -59 45q-37 22 -73 22t-73 -22q-23 -14 -59 -46l-7 -6q-28 -23 -42 -31q-18 -10 -59 -25v0q-47 -17 -68 -29
q-37 -20 -54 -49.5t-17 -70.5q0 -25 9 -74l1 -3q7 -43 7 -62.5t-7 -59.5l-1 -6q-9 -49 -9 -74q0 -41 17 -70.5t54 -50.5q22 -13 68 -29q38 -12 59 -24q16 -9 49 -38q37 -32 59 -45q37 -22 72.5 -22t71.5 21q21 12 58 43l4 3q33 29 48 38q25 13 59 24q45 16 68 29
q37 21 54 50.5t17 69.5q0 24 -8 72v3q-9 41 -9 65zM697 240q7 -38 7 -57q1 -29 -8.5 -45.5t-34.5 -29.5q-15 -8 -52 -22l-13 -5q-41 -15 -59 -26q-21 -11 -57 -43l-1 -1q-30 -26 -46 -36q-25 -16 -46.5 -16t-46.5 15q-15 10 -45 35l-3 3q-36 32 -55 42.5t-57 25.5l-13 5
q-38 14 -54 22q-26 14 -36 30.5t-9 44.5q1 17 8 56l2 13q7 44 7 65.5t-7 66.5l-3 13q-6 38 -7 55q-1 28 9 44.5t36 30.5q16 8 54 22q44 15 69 29q17 10 48 36l14 12q29 25 44 34q24 15 44.5 15t46.5 -16q15 -10 46 -37l8 -7q32 -27 50 -37q25 -14 69 -29l3 -1q37 -14 52 -22
q25 -13 34.5 -30t8.5 -45q0 -19 -7 -57q-10 -50 -10 -76.5t10 -76.5z" />
    <glyph glyph-name="sale-label" unicode="&#xe706;" horiz-adv-x="772" 
d="M668 367h-102l-115 173q20 25 20 55q0 35 -25 59.5t-60 24.5t-59.5 -24.5t-24.5 -59.5q0 -32 20 -55l-115 -173h-102q-40 0 -68.5 -28t-28.5 -69v-220q0 -40 28.5 -68.5t68.5 -28.5h563q40 0 68 28.5t28 68.5v220q0 40 -28 68.5t-68 28.5zM386 631q16 0 26.5 -10.5
t10.5 -25.5t-10.5 -26t-26 -11t-26.5 10.5t-11 26t11 26t26 10.5zM361 514q11 -4 25 -4t25 4l98 -147h-245zM717 50q0 -20 -14.5 -34.5t-34.5 -14.5h-563q-20 0 -34.5 14.5t-14.5 34.5v220q0 20 14.5 34.5t34.5 14.5h563q20 0 34.5 -14.5t14.5 -34.5v-220zM156 207
q0 7 6.5 11.5t19.5 4.5t26 -7q6 -3 10 -3q7 0 11.5 7t4.5 14q0 14 -21 19q-13 4 -31 4q-27 0 -45 -12q-21 -15 -21 -42q0 -23 17 -38q10 -9 34 -21q16 -7 22 -11q9 -7 9 -16t-7.5 -13t-17 -4t-17.5 4q-5 2 -13 8q-9 7 -15 7t-11.5 -7.5t-5.5 -14.5q0 -13 19 -23.5t44 -10.5
q29 0 47 15.5t18 42t-19 43.5q-10 10 -36 21q-15 6 -20 10q-8 5 -8 12zM347 244q-4 13 -26 13q-10 0 -17.5 -3.5t-9.5 -9.5l-48 -159v-2q0 -7 8 -12t18 -5t13 8l9 32h54l9 -32q3 -8 13 -8t18 5t8 12v2zM302 137l19 70l19 -70h-38zM511 101h-59v142q0 6 -6 9.5t-14 3.5
t-14.5 -3.5t-6.5 -9.5v-165q0 -6 5.5 -9t12.5 -3h82q6 0 9 5.5t3 12.5t-3 12t-9 5zM649 220q6 0 9 5.5t3 12.5q0 18 -12 18h-92q-7 0 -12.5 -3.5t-5.5 -9.5v-165q0 -6 5.5 -9t12.5 -3h92q6 0 9 5t3 12.5t-3 12.5t-9 5h-69v44h38q6 0 9.5 5t3.5 11t-3.5 10.5t-9.5 4.5h-38v44
h69z" />
    <glyph glyph-name="help-circle" unicode="&#xe707;" 
d="M500 809q-133 0 -248 -67q-111 -66 -177 -177q-67 -115 -67 -249t67 -248q66 -112 177 -177q115 -67 248 -67t248 67q111 66 177 177q67 115 67 248t-67 248q-66 112 -177 177q-115 68 -248 68zM500 -137q-123 0 -229 62q-102 60 -162 163q-62 105 -62 228t62 229
q60 102 162 162q106 62 229 62t229 -62q102 -60 162 -162q62 -106 62 -229t-62 -228q-60 -103 -162 -163q-106 -62 -229 -62zM528 149h-53q-7 0 -7 -7v-61q0 -7 7 -7h53q7 0 7 7v61q0 7 -7 7zM506 562q-55 0 -90 -30t-43 -82q-2 -6 6 -8l44 -8q7 0 8 6q6 32 25 49.5t49 17.5
t49 -17.5t19 -47.5q0 -17 -7 -32.5t-26 -42.5l-48 -65q-11 -16 -16 -28q-5 -15 -5 -35v-29q0 -3 2 -5t5 -2h47q3 0 5 2t2 5v23q0 17 3.5 27t14.5 25l48 65q19 27 27 46q9 22 9 46q0 53 -35.5 86.5t-92.5 33.5z" />
    <glyph glyph-name="sale-discount" unicode="&#xe708;" horiz-adv-x="772" 
d="M736 290q11 0 18.5 8t7.5 18v100q0 11 -7.5 18.5t-18.5 7.5h-175q-11 0 -18.5 -7.5t-7.5 -18.5v-50q0 -10 8 -18t18.5 -8t18 8t7.5 18v24h123v-51q-33 -8 -54 -35.5t-21 -62.5t21 -62t54 -35v-51h-123v24q0 11 -7.5 18.5t-18 7.5t-18.5 -7.5t-8 -18.5v-50
q0 -11 7.5 -18.5t18.5 -7.5h175q11 0 18.5 7.5t7.5 18.5v100q0 11 -7.5 18.5t-18.5 7.5q-20 0 -34.5 14t-14.5 34t14.5 34.5t34.5 14.5zM512 416q0 11 -7.5 18.5t-18.5 7.5h-449q-11 0 -18.5 -7.5t-7.5 -18.5v-100q0 -11 7.5 -18.5t18.5 -7.5q20 0 34.5 -14.5t14.5 -34.5
t-14.5 -34t-34.5 -14q-11 0 -18.5 -7.5t-7.5 -18.5v-100q0 -11 7.5 -18.5t18.5 -7.5h449q11 0 18.5 7.5t7.5 18.5t-7.5 18.5t-18.5 7.5h-423v51q32 8 53.5 35.5t21.5 61.5t-21.5 62t-53.5 36v51h423q11 0 18.5 7.5t7.5 18.5zM436 342h-249q-11 0 -19 -7.5t-8 -18.5t8 -18.5
t19 -7.5h249q11 0 18.5 7.5t7.5 18.5t-7.5 18.5t-18.5 7.5zM436 243h-125q-10 0 -18 -7.5t-8 -18.5t8 -19t18 -8h125q11 0 18.5 8t7.5 19t-7.5 18.5t-18.5 7.5zM562 516v50q0 11 -7.5 18.5t-18 7.5t-18.5 -7.5t-8 -18.5v-50q0 -10 8 -18t18.5 -8t18 8t7.5 18zM561 165
q11 0 18.5 8t7.5 19v99q0 11 -7.5 19t-18.5 8t-18.5 -8t-7.5 -19v-99q0 -11 7.5 -19t18.5 -8zM611 465q10 0 18 8l25 25q8 8 8 18.5t-8 18.5t-18.5 8t-18.5 -8l-25 -25q-7 -8 -7 -18.5t8.5 -18.5t17.5 -8zM443 473q8 -8 18.5 -8t18.5 8t8 18.5t-8 18.5l-25 25q-8 8 -18.5 8
t-18 -7.5t-7.5 -18.5t7 -19z" />
    <glyph glyph-name="shipping-truck" unicode="&#xe709;" 
d="M958 383l-81 109q-42 49 -83 49h-157q-7 0 -19 -4v82q0 17 -16 32q-13 12 -34 21q-19 7 -32 7h-470q-22 0 -38.5 -16t-16.5 -39v-514q0 -23 17.5 -41t40.5 -18h80q8 -42 40.5 -70t75.5 -28t75.5 28t40.5 70h181q21 0 38 15q17 -15 37 -15h21q8 -42 40.5 -70t75.5 -28
q32 0 59 16t43 43t16 59t-16 59t-43 42.5t-59 15.5q-43 0 -75.5 -28t-40.5 -70h-21q-7 1 -13 7t-6 13v372q0 7 6 13.5t13 6.5h157q11 0 24.5 -9t27.5 -26l3 -5h-94q-24 0 -41.5 -17.5t-17.5 -40.5v-79q0 -23 18 -40.5t41 -17.5h195v-157q0 -7 -6 -13.5t-13 -6.5h-39v-39h39
q23 0 41 18t18 41v188q0 36 -31 83zM774 149q32 0 55 -23t23 -55t-23 -55t-55 -23t-55 23t-23 55t23 55t55 23zM265 -7q-32 0 -55 23t-23 55t23 55t55 23t55 -23t23 -55t-23 -55t-55 -23zM578 107q0 -7 -4.5 -12t-11.5 -5h-181q-8 42 -40.5 70t-75.5 28t-75.5 -28t-40.5 -70
h-80q-7 0 -13 6.5t-6 13.5v514q0 7 4.5 11.5t11.5 4.5h470q10 0 25 -8t17 -13v-512zM755 306q-7 0 -13.5 6.5t-6.5 12.5v79q0 8 6.5 13.5t13.5 5.5h124l47 -63q6 -9 13 -22q9 -18 11 -32h-195z" />
    <glyph glyph-name="user-3" unicode="&#xe70a;" 
d="M662 298q56 40 87.5 99.5t31.5 129.5q0 77 -38 142q-38 64 -102.5 102t-140.5 38t-140.5 -38t-102.5 -102q-38 -65 -38 -142q0 -69 31.5 -129t86.5 -99l1 -1q-96 -28 -171 -92.5t-116 -153.5q-43 -91 -43 -193v0q0 -14 10.5 -24.5t24.5 -10.5h914q14 0 24.5 10.5
t10.5 24.5v0q0 102 -43 193q-41 88 -115 152.5t-168 92.5zM289 527q0 57 28.5 105.5t77 77t105.5 28.5t105.5 -28.5t77 -77t28.5 -105.5t-28.5 -105.5t-77 -77t-105.5 -28.5v0q-57 0 -105.5 28.5t-77 77t-28.5 105.5v0zM80 -106q9 98 63 178.5t137 126.5q86 47 185 47h70
q99 0 185 -47q83 -46 137 -126t63 -177v-2h-840z" />
    <glyph glyph-name="long-arrow-alt" unicode="&#xe70b;" 
d="M717 586l-1 1l-45 -45l193 -194h-850v-63h850l-193 -194l45 -45l270 270z" />
    <glyph glyph-name="map-location" unicode="&#xe70c;" 
d="M500 632q-50 0 -92.5 -25t-67.5 -67.5t-25 -92.5t25 -92.5t67.5 -67t92.5 -24.5t92.5 24.5t67.5 67t25 92.5t-25 92.5t-67.5 67.5t-92.5 25zM500 293q-42 0 -77.5 20.5t-56 56t-20.5 77.5t20.5 77.5t56 56t77.5 20.5t77.5 -20.5t56 -56t20.5 -77.5t-20.5 -77.5t-56 -56
t-77.5 -20.5zM500 809q-100 0 -186 -50q-84 -49 -133 -133q-50 -86 -50 -186t53 -215q43 -94 123 -202q53 -70 143 -174v0q7 -8 16 -14q17 -11 33 -11h2q12 0 25 6q9 5 16.5 11.5t7.5 7.5q90 104 143 174q80 108 123 202q53 115 53 215t-50 186q-49 84 -133 133
q-86 50 -186 50zM504 -111q-1 0 -2 -1l-3 -2q0 2 -4 4l-4 5q-84 97 -128 155q-77 102 -119 189q-52 109 -52 200q0 84 42 155q41 70 111 111q71 42 155 42t155 -42q70 -41 111 -111q42 -71 42 -155q0 -91 -53 -200q-41 -87 -119 -189q-44 -59 -128 -156z" />
    <glyph glyph-name="phone-call" unicode="&#xe70d;" 
d="M559 149v2q-19 30 -54 43q-37 13 -69 -5l-37 -19q-51 106 -86 224l40 11h2q34 11 52.5 44t10.5 68q-13 55 -19 109v1q-6 36 -33 61q-29 26 -66 22l-125 -10q-56 -3 -91 -47q-23 -29 -33.5 -71t-3.5 -82v-1q61 -318 226 -585q19 -33 51.5 -56t67.5 -31q17 -3 31 -3
q43 0 78 26h1l100 77q1 1 2 1q28 24 32.5 61.5t-17.5 66.5q-30 43 -60 93zM560 -19l-99 -76q-23 -16 -55 -10q-22 5 -42 19.5t-32 35.5v0q-160 261 -217 561q-4 26 2.5 53.5t20.5 44.5q16 21 41 22l128 11q8 1 15 -7t9 -18q5 -47 20 -115v-1q2 -9 -3 -18t-14 -12l-73 -19
q-14 -5 -21.5 -17t-2.5 -26q43 -157 116 -301q6 -13 20 -17.5t27 2.5l68 35h1q6 4 15.5 -0.5t15.5 -12.5q18 -32 62 -99q1 0 1 -1q5 -7 4.5 -17t-7.5 -17zM522 560q-14 3 -26 -4.5t-15.5 -21.5t4.5 -26t21 -15q40 -9 70.5 -35.5t44.5 -64.5q13 -34 10.5 -70.5t-20.5 -68.5
q-7 -13 -3 -26.5t16 -20.5q8 -4 17 -4t17.5 4.5t12.5 12.5q26 46 30 97.5t-15 100.5q-21 54 -64.5 91.5t-99.5 50.5zM923 509q-44 113 -135 192t-209 107q-14 3 -26 -5t-15 -21.5t4.5 -25.5t21.5 -15q101 -24 179 -92t115 -165q34 -87 27.5 -180t-52.5 -175
q-7 -12 -3.5 -25.5t16.5 -21.5q7 -4 17 -4q20 0 30 18q53 95 61 203t-31 210z" />
    <glyph glyph-name="tablet" unicode="&#xe70e;" 
d="M746 809h-492q-38 0 -65 -27.5t-27 -65.5v-800q0 -38 27 -65t65 -27h492q38 0 65 27t27 65v800q0 38 -27 65.5t-65 27.5zM777 -84q0 -13 -9 -21.5t-22 -8.5h-492q-13 0 -22 8.5t-9 21.5v62h554v-62zM777 9h-554v615h554v-615zM777 655h-554v61q0 13 9 22t22 9h492
q13 0 22 -9t9 -22v-61zM546 716h-92q-7 0 -11 -4.5t-4 -11t4 -10.5t11 -4h92q7 0 11.5 4t4.5 10.5t-4.5 11t-11.5 4.5zM485 -83h30q7 0 11.5 4t4.5 10.5t-4.5 11t-11.5 4.5h-30q-7 0 -11.5 -4.5t-4.5 -11t4.5 -10.5t11.5 -4z" />
    <glyph glyph-name="spin1" unicode="&#xe800;" 
d="M496 808q-128 0 -239 -61q-108 -59 -175 -161q-28 -43 -45 -84q-16 -38 -28 -90v-3q0 -5 3 -8.5t8 -3.5h99q4 0 7 2.5t4 6.5q22 83 77.5 148.5t133.5 100.5q24 13 62 23q50 10 93 10v0v0v0q37 0 73 -6l14 -3q4 -1 9 -3l5 -1q3 -1 7 0.5t5 5.5l52 87q2 5 -0.5 9.5
t-6.5 5.5q-38 12 -64 17l-13 2q-32 6 -81 6v0v0zM818 696q-8 0 -11 -6l-49 -85q-2 -3 -1.5 -7t3.5 -7q44 -43 72 -99l11 -22q29 -72 29 -149v0v0q0 -56 -15.5 -108.5t-45.5 -96.5q-13 -21 -23 -33q-15 -18 -28 -30v0v0v0q-3 -3 -3.5 -7t1.5 -7l49 -86q0 -1 2.5 -4t7 -3
t8.5 3q86 77 132 187q10 25 15 44q20 69 20 141q0 79 -23.5 152t-66.5 135q-18 25 -37 45l-7 7q-21 23 -33 33v0q-1 1 -2 1q-4 2 -5 2zM20 236v0h-3q-4 -1 -7 -5t-2 -9q25 -121 104.5 -216.5t192.5 -143.5q43 -17 92 -28q52 -10 98 -10v0v0q57 0 115 14q6 1 17 4l5 1l23 8
q5 2 6 6.5t-2 8.5l-50 86q-4 8 -12 6q-21 -6 -42 -9l-8 -2q-25 -3 -52 -3v0v0q-93 0 -175 43q-79 42 -131 115h-1q-18 26 -33.5 59t-24.5 65q-1 4 -4 7t-7 3h-99z" />
    <glyph glyph-name="spin2" unicode="&#xe801;" 
d="M53 114v0h-1q-10 26 -19.5 53.5t-15.5 57.5q-14 73 -5.5 148.5t39.5 144.5q2 4 6.5 5.5t8.5 -0.5q2 0 2 -1l79 -58q4 -2 5 -6t-1 -8q-7 -18 -12 -36q-6 -20 -9 -40q-17 -101 23 -197q3 -8 -4 -13l-79 -55q-4 -3 -8.5 -2t-7.5 5q-1 0 -1 2v0zM172 678v0v1q18 17 45 37
q32 22 50 30q66 38 140.5 53t151.5 6q10 -2 10 -12l-31 -95q-1 -4 -5 -6t-8 -1h-39q-26 -2 -40 -4q-105 -17 -183 -82q-3 -2 -7 -2t-7 2l-77 57q-4 2 -4.5 7t2.5 8zM750 742v0h1q24 -13 49 -31l30 -24l16 -13q55 -52 92.5 -118t52.5 -140q1 -4 -1 -8t-7 -5l-101 1
q-4 0 -7 2.5t-4 6.5q-2 9 -8 26l-4 11q-8 23 -16 36q-48 93 -135 147q-7 4 -5 13l31 91q1 4 5.5 6t8.5 0zM990 216v0v0q-7 -35 -14 -56q-12 -33 -22 -54q-33 -69 -84 -125t-118 -93q-4 -2 -9 -1t-7 5l-1 2l-29 93q-1 4 0.5 7.5t5.5 5.5q18 11 31 23q17 14 30 27
q36 36 61.5 80t37.5 93q3 8 11 8l97 -1q4 0 7 -3.5t3 -7.5v-3zM559 -173v0v0q-28 -3 -60 -3t-57 4q-76 9 -144 40q-71 31 -127 83q-4 3 -4 7.5t4 8.5l80 58q4 2 8.5 1.5t7.5 -3.5q20 -16 32.5 -24t32.5 -18q93 -47 197 -41q9 0 12 -8l28 -90q2 -4 0 -8t-7 -6q-1 -1 -3 -1v0z
" />
    <glyph glyph-name="spin3" unicode="&#xe802;" 
d="M494 809q-129 0 -240 -63q-108 -61 -173 -167q-68 -108 -73 -235q0 -8 2.5 -12.5t6.5 -6.5l4 -1h82q19 0 19 18q5 97 57 178q50 80 132 126q85 48 183 48q78 0 148 -30.5t121 -85.5l-57 -56q-9 -9 -8 -18t13 -12l243 -50q10 -3 20.5 2t15 15.5t0.5 26.5l-57 223
q-2 8 -11 13.5t-17 -0.5l-64 -59q-68 68 -155 106q-92 40 -192 40zM897 309q-19 0 -19 -18q-5 -97 -57 -179q-50 -80 -132 -126q-85 -48 -182 -48q-78 0 -149 32q-69 30 -121 85l58 56q8 9 7 18t-12 12l-244 49q-10 3 -20.5 -1.5t-15 -15t-0.5 -26.5l57 -223q2 -8 11 -13.5
t18 0.5l63 59q67 -69 156 -107q91 -39 192 -39q128 0 239 63q108 62 173 167q68 108 73 236q0 8 -2.5 12t-6.5 6l-4 1h-82z" />
    <glyph glyph-name="spin4" unicode="&#xe803;" horiz-adv-x="1001" 
d="M498 809q-85 0 -166 -29.5t-149 -85.5v0q84 68 191 89q104 20 206 -10q105 -31 182 -109q65 -65 98 -149q32 -82 29.5 -170.5t-39.5 -168.5q-14 -39 11 -66q16 -16 41.5 -16.5t41.5 16.5q3 2 8 9.5t7 13.5q35 88 34 184t-37 185q-37 91 -107 162q-72 71 -165 109
q-90 36 -186 36zM96 539q-24 0 -39 -16q-4 -4 -8 -10q-6 -8 -7 -14q-35 -89 -34.5 -184.5t37.5 -183.5q37 -92 108 -162q89 -89 210 -125q117 -34 237 -10q122 24 218 104v0q-84 -68 -191 -89q-104 -20 -206 11q-105 31 -183 109q-65 65 -97 150q-32 81 -29 169.5t39 167.5
q7 22 4.5 37.5t-16.5 29.5q-8 8 -19.5 12.5t-23.5 3.5z" />
    <glyph glyph-name="spin5" unicode="&#xe804;" 
d="M463 809q-4 0 -7.5 -3t-3.5 -8v-180q0 -4 3.5 -7.5t7.5 -3.5h69q5 0 8 3.5t3 7.5v180q0 5 -3 8t-8 3h-69zM709 762q-6 1 -10 -5l-90 -155q-3 -4 -2 -9t6 -7l59 -33v-1q4 -2 9 -1t7 5l90 155q2 5 1 9.5t-5 6.5l-60 34q-1 1 -5 1zM287 760q-3 0 -5 -2l-61 -34q-3 -2 -4 -7
t1 -9l89 -154v0q2 -4 6.5 -5.5t9.5 0.5l60 34q4 3 5 7.5t-1 8.5l-90 154v1q-3 6 -10 6zM898 600q-4 0 -6 -1l-155 -90v0q-4 -2 -5.5 -6.5t0.5 -8.5l35 -60q3 -4 7.5 -5t8.5 1l154 89h1q4 2 5 7t-1 9l-34 60q-3 7 -10 5zM100 596q-7 0 -10 -6l-35 -60q-2 -4 -1 -8.5t5 -6.5
l156 -89q4 -3 8.5 -2t6.5 6l35 59v0q2 4 1 8.5t-5 6.5l-156 90q-4 2 -5 2zM801 365v0q-4 0 -7.5 -3t-3.5 -8v-69q0 -5 3 -8.5t8 -3.5h180q5 0 8 3.5t3 8.5v69q0 5 -3 8t-8 3h-180zM20 360v0q-5 0 -8.5 -3.5t-3.5 -8.5v-69q0 -5 3.5 -8t8.5 -3h179q5 0 8 3.5t3 7.5v69
q0 5 -3 8.5t-8 3.5h-179zM780 209q-7 0 -10 -6l-34 -59h-1q-2 -4 -1 -9t5 -7l156 -89q4 -2 9 -1t7 5l34 60q2 4 1 8.5t-5 6.5l-155 90q-2 1 -6 1zM222 204q-2 0 -4 -1l-155 -89h-1q-4 -2 -5 -7t1 -9l35 -60q2 -4 6.5 -5t8.5 1l155 89v0q4 2 5.5 6.5t-0.5 9.5l-35 60
q-6 6 -11 5zM683 85q-4 0 -6 -1l-60 -34q-4 -3 -5 -7.5t1 -8.5l90 -155v-1q2 -4 7 -5t9 1l60 35q4 2 5 7t-1 9l-90 154v0q-3 6 -10 6zM322 83q-7 0 -10 -6l-90 -155q-2 -5 -1 -9.5t5 -6.5l60 -35q4 -2 8.5 -1t6.5 5l91 156q2 5 0.5 9.5t-5.5 6.5l-59 34v0zM469 26
q-5 0 -8.5 -3t-3.5 -8v-180q0 -5 3.5 -8t8.5 -3h68q5 0 8 3.5t3 7.5v180q0 5 -3 8t-8 3h-68z" />
    <glyph glyph-name="spin6" unicode="&#xe805;" 
d="M849 -18q-68 -68 -161 -102q-89 -33 -186.5 -30t-186.5 40q-92 38 -159 105q-92 92 -128 216q-35 121 -9 243q26 126 109 224l4 4q19 23 31 30q26 17 58.5 13t56.5 -26q21 -23 25.5 -53t-9.5 -57q-7 -13 -16 -22q-68 -73 -93 -167q-25 -93 -4 -182q23 -92 89 -158
q73 -73 175 -92q97 -18 194.5 15.5t163.5 109.5q52 60 80 134.5t27 153.5q-1 81 -32 156q-40 95 -121 158q-79 60 -178 77q-102 17 -202 -17v1q115 40 232 21q115 -18 206 -87q94 -72 140 -182q34 -81 37 -168q2 -85 -26 -167t-82 -150q-15 -21 -35 -41z" />
    <glyph glyph-name="firefox" unicode="&#xe806;" 
d="M504 -160q-104 0 -196 39q-89 37 -156.5 105t-106.5 157q-42 96 -36 225q5 124 51 240q47 118 122 187l-6 -153q4 4 21 6t34 0.5t22 -7.5q15 30 52 55q34 24 78.5 38t85.5 15q-17 -14 -40 -45q-27 -34 -42 -66q-18 -37 -15 -60q21 -7 55 -10q20 -2 58 -4l21 -1
q8 -5 5 -26t-17 -41q-12 -16 -37 -28q-17 -9 -39 -15l-19 -5l7 -105l-75 38q-12 -30 0 -58q11 -26 38 -40.5t57 -9.5q22 4 43 13q13 6 33.5 18t30.5 16q17 7 33 6q34 -1 51 -18q15 -16 9 -35q-3 -13 -18 -20q-11 -4 -27 -5h-13q-32 -52 -79 -74t-116 -17q50 -41 113 -49
q55 -7 113 12q52 18 95 52q41 33 60 70q23 45 22 106q-1 54 -20 104q-19 48 -44 69q48 -21 73 -42q30 -25 45 -64q8 93 -32 187q-40 96 -115 157q145 -42 225 -151q82 -113 84 -286q1 -87 -35.5 -173.5t-102.5 -154.5q-68 -71 -155 -110q-93 -42 -195 -42z" />
    <glyph glyph-name="chrome" unicode="&#xe807;" 
d="M498 808q-110 -1 -209 -48q-102 -48 -172 -135l152 -233q19 54 59 94t93 59.5t110 13.5l408 -21q-31 63 -79 114q-50 53 -114 91q-113 65 -248 65zM89 586q-81 -121 -81 -270q0 -121 55 -227q54 -103 149 -172t212 -87l126 248q-56 -10 -111 4.5t-98.5 51t-66.5 88.5z
M960 494l-278 -15q37 -44 51.5 -99t5 -111t-43.5 -102l-223 -342q145 -9 274 65q105 60 169 162q62 98 74.5 214.5t-29.5 227.5zM500 483q-45 0 -83 -22.5t-60.5 -61t-22.5 -83.5t22.5 -83t60.5 -60.5t83 -22.5t83 22.5t60.5 60.5t22.5 83t-22.5 83.5t-60.5 61t-83 22.5z
" />
    <glyph glyph-name="opera" unicode="&#xe808;" horiz-adv-x="848" 
d="M425 -175q-101 0 -183 42q-76 39 -131 111q-51 68 -78 158q-26 86 -26 180t26 180q27 90 78 158q55 72 131 111q82 42 183 42t183 -42q76 -39 131 -111q51 -68 78 -158q26 -86 26 -180t-26 -180q-27 -90 -79 -158q-54 -72 -130 -111q-82 -42 -183 -42zM425 -84
q66 0 112 83q41 75 56 199q14 119 0 237q-15 124 -56 199q-46 83 -112 83t-112 -83q-41 -75 -56 -199q-15 -119 0 -237q15 -124 56 -199q45 -83 112 -83z" />
    <glyph glyph-name="ie" unicode="&#xe809;" horiz-adv-x="944" 
d="M822 799q-104 -1 -271 -102q-118 17 -228 -21q-113 -40 -183 -127q-76 -94 -81 -225q31 48 87 106q62 63 128 110q75 55 140 75v-13q-52 -26 -122.5 -96t-133.5 -160q-68 -96 -107 -186q-44 -100 -44 -175q1 -85 59 -129q30 -23 84 -22q45 1 102 19q49 16 92 39
q41 22 54 37q45 -8 86 -8q95 0 181 37q83 36 143 100t85 145h-290q-10 -41 -40.5 -64.5t-76.5 -23.5q-68 0 -97 43q-24 34 -24 102h541q14 96 -23 186q-35 85 -107 148.5t-165 89.5q92 61 163 80q81 22 115 -16q39 -44 10 -164h20q25 79 15.5 134t-52.5 71q-24 10 -56 10h-4
zM482 506q58 0 91 -33t33 -91h-243q0 56 31.5 90t87.5 34zM128 99q42 -60 106 -103t141 -62q-36 -27 -91 -45q-52 -16 -99.5 -18t-66.5 13q-33 27 -29 86q4 54 39 129z" />
    <glyph glyph-name="phone" unicode="&#xe80a;" horiz-adv-x="785" 
d="M777 93q0 -14 -5 -38t-12 -37q-11 -28 -67 -59q-51 -27 -101 -27q-14 0 -29 2t-31 6t-26 8t-30 11t-27 10q-53 20 -95 46q-70 43 -145 117t-118 145q-26 42 -45 95l-10 28q-8 23 -11 30t-8 25t-7 32t-2 28q0 51 28 102q31 56 58 66q14 6 37 12t39 6q7 0 11 -2
q10 -3 30 -41q6 -11 15 -30t20 -35t17 -29q2 -2 9 -14t12 -19t4 -16q0 -11 -16 -26t-34 -31l-33 -29q-15 -13 -16 -25q0 -4 3 -12l4 -11q1 -3 8 -14t7 -10q41 -75 95 -129t128 -95q1 0 10 -6t13 -7t11 -5t13 -2q10 0 24 15t30 34t30 34t27 16q7 0 15 -4t20 -12t13 -10
q14 -8 30 -16t35 -20t29 -17q38 -18 41 -28q2 -4 2 -12z" />
    <glyph glyph-name="down-dir" unicode="&#xe80b;" horiz-adv-x="571" 
d="M557 435q0 -13 -9 -23l-238 -238q-11 -11 -24 -11t-24 11l-238 238q-10 10 -10 23t10 24t24 11h476q13 0 24 -11t9 -24z" />
    <glyph glyph-name="cart" unicode="&#xe80c;" horiz-adv-x="925" 
d="M358 3q0 -29 -20 -49t-49 -22t-49 22t-21 49t21 48t49 21t49 -21t20 -48zM847 3q0 -29 -20 -49t-49 -22t-49 22t-22 49t22 48t49 21t49 -21t20 -48zM918 596v-280q0 -12 -10 -22t-22 -12l-570 -66q7 -34 7 -39q0 -8 -13 -35h502q15 0 25 -10t10 -25t-10 -24t-25 -11h-558
q-14 0 -25 11t-10 24q0 6 4 18t9 19t12 22t8 16l-96 449h-111q-15 0 -25 10t-11 24t11 26t25 10h139q9 0 16 -3t10 -9t8 -14t4 -14t2 -16t3 -14h655q14 0 25 -11t11 -24z" />
    <glyph glyph-name="up-dir" unicode="&#xe80d;" horiz-adv-x="571" 
d="M557 197q0 -13 -9 -24t-24 -9h-476q-14 0 -24 9t-10 24t10 25l238 238q10 9 24 9t24 -9l238 -238q9 -11 9 -25z" />
    <glyph glyph-name="mode-grid" unicode="&#xe80e;" 
d="M8 -176v246h246v-246h-246zM8 193v246h246v-246h-246zM8 562v247h246v-247h-246zM377 -176v246h246v-246h-246zM377 193v246h246v-246h-246zM377 562v247h246v-247h-246zM746 -176v246h246v-246h-246zM746 193v246h246v-246h-246zM746 562v247h246v-247h-246z" />
    <glyph glyph-name="mode-list" unicode="&#xe80f;" 
d="M8 -176v246h246v-246h-246zM8 193v246h246v-246h-246zM8 562v247h246v-247h-246zM393 -176v246h599v-246h-599zM393 193v246h599v-246h-599zM393 562v247h599v-247h-599z" />
    <glyph glyph-name="compare" unicode="&#xe810;" horiz-adv-x="960" 
d="M226 -175h-218v327h218v-327zM591 -175h-220v656h220v-656zM736 -175v983h218v-983h-218z" />
    <glyph glyph-name="wishlist" unicode="&#xe811;" horiz-adv-x="1063" 
d="M771 809q125 0 204 -79t80 -204v-59q0 -281 -524 -643q-522 361 -522 643v59q0 125 79 204t203 79q80 0 132 -30t108 -97q57 66 110 97t130 30z" />
    <glyph glyph-name="search" unicode="&#xe812;" 
d="M742 179l250 -252l-103 -103l-250 250q-104 -71 -229 -71q-166 0 -284 118t-118 285t118 284t284 119t285 -119t118 -284q0 -125 -71 -227zM678 406q0 111 -78 190t-190 79t-190 -79t-78 -190t78 -189t190 -79t190 79t78 189z" />
    <glyph glyph-name="left-dir" unicode="&#xe813;" horiz-adv-x="357" 
d="M353 588v-543q0 -15 -11 -27t-28 -12t-27 12l-272 271q-11 12 -11 27t11 28l272 271q12 12 27 12t28 -12t11 -27z" />
    <glyph glyph-name="right-dir" unicode="&#xe814;" horiz-adv-x="357" 
d="M353 316q0 -15 -11 -27l-271 -271q-12 -12 -27 -12t-28 12t-12 27v543q0 16 12 27t28 12t27 -12l271 -272q11 -10 11 -27z" />
    <glyph glyph-name="down-open" unicode="&#xe815;" 
d="M976 463l-449 -448q-11 -12 -27 -12t-27 12l-449 448q-12 12 -12 28t12 27l101 100q11 12 27 12t27 -12l321 -321l321 321q12 12 27 12t28 -12l100 -100q12 -12 12 -27t-12 -28z" />
    <glyph glyph-name="left-open" unicode="&#xe816;" horiz-adv-x="711" 
d="M662 640l-325 -324l325 -324q11 -11 11 -28t-11 -27l-102 -102q-12 -11 -27 -11t-28 11l-453 454q-12 11 -12 27t12 28l453 453q11 12 28 12t27 -12l102 -102q11 -11 11 -28t-11 -27z" />
    <glyph glyph-name="right-open" unicode="&#xe817;" horiz-adv-x="711" 
d="M662 289l-453 -454q-12 -11 -28 -11t-27 11l-102 102q-12 12 -12 27t12 28l324 324l-324 324q-12 12 -12 27t12 28l102 102q11 12 27 12t28 -12l453 -453q11 -12 11 -28t-11 -27z" />
    <glyph glyph-name="up-open" unicode="&#xe818;" 
d="M976 114l-100 -100q-12 -10 -28 -10t-27 10l-321 322l-321 -322q-12 -10 -27 -10t-27 10l-101 100q-12 12 -12 28t12 27l449 449q12 11 27 11t27 -11l449 -449q12 -11 12 -27t-12 -28z" />
    <glyph glyph-name="angle-left" unicode="&#xe819;" horiz-adv-x="357" 
d="M353 564q0 -7 -7 -12l-234 -236l234 -235q7 -6 7 -14t-7 -14l-30 -30q-5 -5 -12 -5t-14 5l-279 280q-6 5 -6 13t6 14l279 278q5 7 14 7t12 -7l30 -30q7 -5 7 -14z" />
    <glyph glyph-name="angle-right" unicode="&#xe81a;" horiz-adv-x="357" 
d="M353 316q0 -8 -5 -13l-280 -280q-6 -5 -13 -5t-14 5l-30 30q-6 7 -6 14t6 14l235 235l-235 236q-6 5 -6 12t6 14l30 30q5 7 14 7t13 -7l280 -278q5 -6 5 -14z" />
    <glyph glyph-name="angle-up" unicode="&#xe81b;" horiz-adv-x="639" 
d="M627 188q0 -8 -6 -13l-31 -31q-6 -7 -13 -7t-15 7l-242 241l-242 -241q-5 -7 -14 -7t-13 7l-31 31q-7 5 -7 13t7 14l287 287q5 6 13 6t14 -6l287 -287q6 -5 6 -14z" />
    <glyph glyph-name="angle-down" unicode="&#xe81c;" horiz-adv-x="639" 
d="M627 444q0 -8 -6 -14l-287 -287q-5 -6 -14 -6t-13 6l-287 287q-7 6 -7 14t7 14l31 31q5 6 13 6t14 -6l242 -241l242 241q6 6 15 6t13 -6l31 -31q6 -6 6 -14z" />
    <glyph glyph-name="down" unicode="&#xe81d;" horiz-adv-x="425" 
d="M422 78q4 -10 -3 -18l-191 -211q-6 -5 -13.5 -5t-12.5 5l-194 211q-7 8 -2.5 18.5t15.5 10.5h123v682q0 8 4 13t13 5h105q8 0 13 -5t5 -13v-682h122q11 0 16 -11z" />
    <glyph glyph-name="left" unicode="&#xe81e;" 
d="M983 371v-108q0 -7 -5 -12t-14 -5h-696v-126q0 -12 -11 -17t-19 3l-215 197q-5 5 -5 12.5t5 13.5l215 197q9 8 19.5 3.5t10.5 -16.5v-125h696q8 0 14 -5t5 -12z" />
    <glyph glyph-name="right" unicode="&#xe81f;" 
d="M983 318q0 -8 -5 -14l-216 -197q-8 -8 -19 -3.5t-11 16.5v125h-696q-8 0 -13 5t-5 12v108q0 7 5 12t13 5h696v125q0 12 11 17t19 -3l216 -195q5 -6 5 -13z" />
    <glyph glyph-name="up" unicode="&#xe820;" horiz-adv-x="425" 
d="M422 555q-5 -11 -16 -11h-122v-683q0 -8 -5 -13t-13 -5h-105q-8 0 -13 5t-5 13v683h-122q-12 0 -16 11t3 18l191 211q5 5 12.5 5t13.5 -5l194 -211q7 -7 3 -18z" />
    <glyph glyph-name="angle-double-left" unicode="&#xe821;" horiz-adv-x="571" 
d="M343 76q0 -7 -6 -13l-29 -29q-5 -5 -13 -5t-13 5l-268 269q-6 6 -6 13t6 13l268 269q5 6 13 6t13 -6l29 -29q6 -5 6 -14t-6 -12l-226 -227l226 -226q6 -6 6 -14zM564 76q0 -7 -5 -13l-29 -29q-6 -5 -14 -5t-13 5l-268 269q-7 6 -7 13t7 13l268 269q6 6 13 6t14 -6l29 -29
q5 -5 5 -14t-5 -12l-227 -227l227 -226q5 -6 5 -14z" />
    <glyph glyph-name="angle-double-right" unicode="&#xe822;" horiz-adv-x="571" 
d="M343 316q0 -7 -5 -13l-270 -269q-5 -5 -12 -5t-13 5l-29 29q-6 6 -6 13t6 14l226 226l-226 227q-6 5 -6 12t6 14l29 29q5 6 13 6t12 -6l270 -269q5 -5 5 -13zM564 316q0 -7 -5 -13l-269 -269q-6 -5 -13 -5t-13 5l-29 29q-6 6 -6 13t6 14l226 226l-226 227q-6 5 -6 12
t6 14l29 29q6 6 13 6t13 -6l269 -269q5 -5 5 -13z" />
    <glyph glyph-name="angle-double-up" unicode="&#xe823;" horiz-adv-x="639" 
d="M633 66q0 -8 -7 -15l-32 -31q-5 -6 -13 -6t-15 6l-246 245l-246 -245q-5 -6 -14 -6t-14 6l-31 31q-7 7 -7 15t7 14l291 292q6 5 14 5t14 -5l292 -292q7 -6 7 -14zM633 306q0 -8 -7 -15l-32 -31q-5 -6 -13 -6t-15 6l-246 246l-246 -246q-5 -6 -14 -6t-14 6l-31 31
q-7 7 -7 15t7 14l291 292q6 7 14 7t14 -7l292 -292q7 -6 7 -14z" />
    <glyph glyph-name="angle-double-down" unicode="&#xe824;" horiz-adv-x="639" 
d="M633 326q0 -7 -7 -14l-292 -292q-5 -6 -14 -6t-14 6l-291 292q-7 7 -7 14t7 15l31 31q6 6 14 6t14 -6l246 -246l246 246q6 6 15 6t13 -6l32 -31q7 -7 7 -15zM633 566q0 -7 -7 -14l-292 -292q-5 -5 -14 -5t-14 5l-291 292q-7 7 -7 14t7 15l31 31q6 7 14 7t14 -7l246 -245
l246 245q6 7 15 7t13 -7l32 -31q7 -7 7 -15z" />
    <glyph glyph-name="mail" unicode="&#xe825;" 
d="M921 19v420q-18 -20 -39 -35q-146 -113 -233 -186q-27 -23 -45 -36t-47 -27t-56 -13h-2q-25 0 -56 13t-47 27t-45 36q-86 73 -233 186q-21 15 -38 35v-420q0 -6 5 -12t12 -5h806q7 0 12 5t6 12zM921 594v13l-2 14l-3 5q-3 5 -5 4t-8 2h-806q-7 0 -12 -6t-5 -12
q0 -92 81 -156q105 -82 219 -172l19 -17q16 -14 25 -20t24 -17t28 -16t23 -4h2q11 0 24 4t27 16t25 17t24 20t20 17q113 90 219 172q30 24 55 64t26 72zM990 614v-595q0 -36 -25 -61t-62 -27h-806q-35 0 -61 27t-26 61v595q0 37 26 62t61 26h806q36 0 62 -26t25 -62z" />
    <glyph glyph-name="location" unicode="&#xe826;" horiz-adv-x="571" 
d="M427 457q0 58 -42 99t-99 41t-99 -41t-41 -99t41 -99t99 -42t99 42t42 99zM566 457q0 -60 -18 -98l-199 -425q-9 -18 -26 -28t-37 -11t-37 11t-26 28l-200 425q-18 38 -18 98q0 116 83 198t198 83t199 -83t81 -198z" />
    <glyph glyph-name="skype" unicode="&#xe827;" horiz-adv-x="918" 
d="M886 218q26 -57 26 -116q0 -106 -74 -182t-176 -75q-61 0 -118 31q-51 -8 -79 -8q-178 0 -305 130t-127 314q0 44 10 89q-35 59 -35 132q0 106 72 180t177 75q73 0 134 -39q31 8 74 8q179 0 305 -130t126 -315q0 -45 -10 -94zM686 100q29 45 29 98q0 44 -16 79
q-15 30 -49.5 52.5t-74.5 36.5q-66 19 -94 25q-14 2 -34 7l-27 7q-23 8 -33 14q-16 7 -26 21q-10 10 -10 26q0 23 28 41q26 20 75 20t72 -18q26 -22 38 -49q15 -26 25 -36q16 -11 38 -11q25 0 45 19q17 18 17 44q0 19 -13 51q-16 23 -42 47q-27 21 -72 37q-47 14 -101 14
q-70 0 -125 -22q-55 -19 -85 -59t-29 -90t27 -88q34 -40 75 -56q47 -21 114 -35q12 -2 28 -7t30 -8t21 -5q27 -9 45 -27q17 -14 17 -41q0 -34 -31 -55q-35 -24 -88 -24q-40 0 -63 12q-26 14 -36 27q-23 44 -25 46q-8 23 -24 39q-20 14 -39 14q-28 0 -45 -18t-18 -41
q0 -38 27 -81q26 -39 71 -65q63 -33 155 -33q77 0 136 23q59 28 87 69z" />
    <glyph glyph-name="right-open-big" unicode="&#xe828;" horiz-adv-x="462" 
d="M17 -47l351 362l-351 365q-26 25 0 47q25 25 47 0l384 -386q23 -26 0 -49l-384 -386q-22 -26 -47 0q-26 21 0 47z" />
    <glyph glyph-name="left-open-big" unicode="&#xe829;" horiz-adv-x="462" 
d="M447 -47q25 -26 0 -47q-25 -26 -47 0l-384 386q-24 23 0 49l384 386q22 25 47 0q25 -22 0 -47l-351 -365z" />
    <glyph glyph-name="down-open-big" unicode="&#xe82a;" horiz-adv-x="866" 
d="M76 528l357 -344l360 344q21 25 46 0q25 -21 0 -46l-383 -379q-21 -21 -46 0l-383 379q-25 25 0 46q23 23 49 0z" />
    <glyph glyph-name="up-open-big" unicode="&#xe82b;" horiz-adv-x="864" 
d="M792 103l-360 346l-357 -346q-26 -22 -49 0.5t0 47.5l383 377q25 25 46 0l383 -377q23 -25 0 -48q-25 -22 -46 0z" />
    <glyph glyph-name="cancel" unicode="&#xe82c;" horiz-adv-x="785" 
d="M777 81q0 -25 -17 -44l-88 -88q-19 -17 -44 -17t-44 17l-191 192l-190 -192q-19 -17 -44 -17t-44 17l-89 88q-18 19 -18 44t18 44l191 191l-191 190q-18 19 -18 44t18 44l89 89q18 18 44 18t44 -18l190 -191l191 191q18 18 44 18t44 -18l88 -89q17 -17 17 -44t-17 -44
l-190 -190l190 -191q17 -17 17 -44z" />
    <glyph glyph-name="user" unicode="&#xe82d;" horiz-adv-x="711" 
d="M706 41q0 -59 -34 -102t-82 -43h-467q-48 0 -82 43t-34 102q0 47 4 88t17 83t32 72t51 49t75 19q71 -71 170 -71t172 71q41 0 74 -19t51 -49t32 -72t18 -83t3 -88zM566 526q0 -86 -61 -148t-149 -62t-148 62t-61 148t61 149t148 62t149 -62t61 -149z" />
    <glyph glyph-name="mail-alt" unicode="&#xe82e;" 
d="M990 454v-435q0 -36 -25 -61t-62 -27h-806q-35 0 -61 27t-26 61v435q25 -27 55 -48q198 -135 272 -189l50 -36q18 -13 52 -26t60 -13h2q27 0 60 13t52 26t50 36q93 67 272 189q32 21 55 48zM990 614q0 -43 -26 -82t-67 -68q-206 -143 -257 -177l-22 -17q-17 -13 -30 -21
t-28 -18t-32 -15t-27 -4h-2q-12 0 -26 4t-32 15l-29 18q-11 7 -30 21t-22 17q-50 34 -144 99t-112 78q-34 23 -64 63t-30 76q0 42 23 70t64 29h806q35 0 62 -26t25 -62z" />
    <glyph glyph-name="fax" unicode="&#xe82f;" 
d="M166 598q37 0 62 -26t26 -63v-597q0 -37 -26 -62t-62 -26h-70q-36 0 -63 26t-25 62v597q0 37 25 63t63 26h70zM922 508q32 -18 51 -51t19 -71v-421q0 -58 -41 -100t-100 -41h-474q-36 0 -62 26t-26 62v843q0 23 15 38t38 16h369q22 0 48 -11t42 -27l84 -84q15 -14 25 -41
t12 -48v-90zM518 -35v70q0 8 -5 13t-13 5h-70q-8 0 -13 -5t-5 -13v-70q0 -8 5 -13t13 -5h70q8 0 13 5t5 13zM518 106v70q0 8 -5 12t-13 5h-70q-8 0 -13 -5t-5 -12v-70q0 -8 5 -13t13 -5h70q8 0 13 5t5 13zM518 246v70q0 8 -5 13t-13 5h-70q-8 0 -13 -5t-5 -13v-70
q0 -7 5 -12t13 -5h70q8 0 13 5t5 12zM659 -35v70q0 8 -5 13t-13 5h-71q-7 0 -12 -5t-5 -13v-70q0 -8 5 -13t12 -5h71q8 0 13 5t5 13zM659 106v70q0 8 -5 12t-13 5h-71q-7 0 -12 -5t-5 -12v-70q0 -8 5 -13t12 -5h71q8 0 13 5t5 13zM659 246v70q0 8 -5 13t-13 5h-71
q-7 0 -12 -5t-5 -13v-70q0 -7 5 -12t12 -5h71q8 0 13 5t5 12zM799 -35v70q0 8 -5 13t-12 5h-71q-7 0 -12 -5t-6 -13v-70q0 -8 6 -13t12 -5h71q7 0 12 5t5 13zM799 106v70q0 8 -5 12t-12 5h-71q-7 0 -12 -5t-6 -12v-70q0 -8 6 -13t12 -5h71q7 0 12 5t5 13zM799 246v70
q0 8 -5 13t-12 5h-71q-7 0 -12 -5t-6 -13v-70q0 -7 6 -12t12 -5h71q7 0 12 5t5 12zM851 457v141h-87q-22 0 -38 15t-15 37v89h-352v-282h492z" />
    <glyph glyph-name="lock" unicode="&#xe830;" horiz-adv-x="639" 
d="M181 351h279v105q0 58 -42 99t-98 40t-99 -40t-40 -99v-105zM634 299v-315q0 -21 -15 -36t-37 -15h-523q-22 0 -37 15t-16 36v315q0 21 16 37t37 15h17v105q0 100 72 172t172 72t173 -72t71 -172v-105h18q22 0 37 -15t15 -37z" />
    <glyph glyph-name="company" unicode="&#xe831;" 
d="M360 597h280v70h-280v-70zM991 246v-263q0 -36 -26 -62t-61 -25h-807q-36 0 -62 25t-26 62v263h368v-87q0 -15 11 -25t25 -11h174q15 0 25 11t11 25v87h368zM570 246v-70h-140v70h140zM991 509v-210h-982v210q0 37 26 62t62 26h193v87q0 23 15 37t37 16h316q22 0 37 -16
t15 -37v-87h194q36 0 61 -26t26 -62z" />
    <glyph glyph-name="city" unicode="&#xe832;" horiz-adv-x="857" 
d="M780 809q15 0 25 -11t11 -25v-913q0 -15 -11 -25t-25 -11h-703q-14 0 -24 11t-11 25v913q0 15 11 25t24 11h703zM323 650v-34q0 -8 5 -13t13 -5h35q7 0 12 5t5 13v34q0 8 -5 13t-12 5h-35q-8 0 -13 -5t-5 -13zM323 509v-34q0 -8 5 -13t13 -5h35q7 0 12 5t5 13v34
q0 8 -5 13t-12 5h-35q-8 0 -13 -5t-5 -13zM323 370v-36q0 -8 5 -13t13 -5h35q7 0 12 5t5 13v36q0 6 -5 11t-12 5h-35q-8 0 -13 -5t-5 -11zM323 229v-36q0 -8 5 -12t13 -5h35q7 0 12 5t5 12v36q0 8 -5 13t-12 4h-35q-8 0 -13 -4t-5 -13zM253 53v35q0 8 -5 13t-13 5h-35
q-7 0 -12 -5t-5 -13v-35q0 -8 5 -13t12 -5h35q8 0 13 5t5 13zM253 193v36q0 8 -5 13t-13 4h-35q-7 0 -12 -4t-5 -13v-36q0 -8 5 -12t12 -5h35q8 0 13 5t5 12zM253 334v36q0 6 -5 11t-13 5h-35q-7 0 -12 -5t-5 -11v-36q0 -8 5 -13t12 -5h35q8 0 13 5t5 13zM253 475v34
q0 8 -5 13t-13 5h-35q-7 0 -12 -5t-5 -13v-34q0 -8 5 -13t12 -5h35q8 0 13 5t5 13zM253 616v34q0 8 -5 13t-13 5h-35q-7 0 -12 -5t-5 -13v-34q0 -8 5 -13t12 -5h35q8 0 13 5t5 13zM534 -88v105q0 8 -5 13t-13 5h-175q-8 0 -13 -5t-5 -13v-105q0 -8 5 -13t13 -5h175q8 0 13 5
t5 13zM534 193v36q0 8 -5 13t-13 4h-35q-7 0 -12 -4t-5 -13v-36q0 -8 5 -12t12 -5h35q8 0 13 5t5 12zM534 334v36q0 6 -5 11t-13 5h-35q-7 0 -12 -5t-5 -11v-36q0 -8 5 -13t12 -5h35q8 0 13 5t5 13zM534 475v34q0 8 -5 13t-13 5h-35q-7 0 -12 -5t-5 -13v-34q0 -8 5 -13
t12 -5h35q8 0 13 5t5 13zM534 616v34q0 8 -5 13t-13 5h-35q-7 0 -12 -5t-5 -13v-34q0 -8 5 -13t12 -5h35q8 0 13 5t5 13zM675 53v35q0 8 -5 13t-13 5h-35q-7 0 -12 -5t-6 -13v-35q0 -8 6 -13t12 -5h35q8 0 13 5t5 13zM675 193v36q0 8 -5 13t-13 4h-35q-7 0 -12 -4t-6 -13
v-36q0 -8 6 -12t12 -5h35q8 0 13 5t5 12zM675 334v36q0 6 -5 11t-13 5h-35q-7 0 -12 -5t-6 -11v-36q0 -8 6 -13t12 -5h35q8 0 13 5t5 13zM675 475v34q0 8 -5 13t-13 5h-35q-7 0 -12 -5t-6 -13v-34q0 -8 6 -13t12 -5h35q8 0 13 5t5 13zM675 616v34q0 8 -5 13t-13 5h-35
q-7 0 -12 -5t-6 -13v-34q0 -8 6 -13t12 -5h35q8 0 13 5t5 13z" />
    <glyph glyph-name="post" unicode="&#xe833;" horiz-adv-x="925" 
d="M788 261v-269q0 -16 -11 -26t-25 -11h-216v216h-145v-216h-215q-16 0 -26 11t-11 26v273l324 266l324 -266q1 -1 1 -4zM913 300l-34 -41q-5 -5 -12 -6h-2q-8 0 -13 3l-389 325l-389 -325q-7 -4 -14 -3t-12 6l-35 41q-4 6 -3 13t6 12l405 337q18 16 42 16t43 -16l138 -114
v109q0 8 5 13t13 6h108q8 0 13 -6t5 -13v-229l123 -103q6 -4 6 -12t-4 -13z" />
    <glyph glyph-name="country" unicode="&#xe834;" 
d="M155 680q0 -41 -37 -62v-721q0 -7 -5 -12t-13 -6h-37q-7 0 -12 6t-7 12v721q-35 21 -35 62q0 31 21 52t51 22t52 -22t22 -52zM991 644v-434q0 -14 -7 -22t-22 -15q-123 -67 -210 -67q-35 0 -71 13t-61 27t-66 28t-80 12q-109 0 -264 -83q-11 -5 -20 -5q-14 0 -25 10
t-10 26v423q0 17 17 30q12 9 45 25q134 68 239 68q61 0 114 -16t125 -50q21 -11 50.5 -11t65.5 12t63 26t50 27t31 12q15 0 25 -10t11 -26z" />
    <glyph glyph-name="calendar" unicode="&#xe835;" horiz-adv-x="925" 
d="M77 -105h158v158h-158v-158zM270 -105h175v158h-175v-158zM77 89h158v174h-158v-174zM270 89h175v174h-175v-174zM77 299h158v158h-158v-158zM481 -105h175v158h-175v-158zM270 299h175v158h-175v-158zM691 -105h158v158h-158v-158zM481 89h175v174h-175v-174zM288 562
v158q0 7 -6 12t-12 6h-35q-7 0 -12 -6t-6 -12v-158q0 -7 6 -13t12 -5h35q7 0 12 5t6 13zM691 89h158v174h-158v-174zM481 299h175v158h-175v-158zM691 299h158v158h-158v-158zM708 562v158q0 7 -4 12t-13 6h-35q-6 0 -12 -6t-5 -12v-158q0 -7 5 -13t12 -5h35q8 0 13 5t4 13z
M920 597v-702q0 -28 -22 -49t-49 -21h-772q-28 0 -49 21t-21 49v702q0 29 21 49t49 21h71v53q0 36 25 62t62 25h35q37 0 62 -25t26 -62v-53h210v53q0 36 27 62t61 25h35q36 0 63 -25t25 -62v-53h70q28 0 49 -21t22 -49z" />
    <glyph glyph-name="doc" unicode="&#xe836;" horiz-adv-x="857" 
d="M813 600q16 -16 27 -41t11 -50v-632q0 -22 -15 -37t-38 -16h-738q-23 0 -37 16t-16 37v878q0 23 16 38t37 16h492q22 0 49 -11t41 -27zM569 734v-207h207q-5 17 -12 23l-172 172q-6 7 -23 12zM781 -106v563h-229q-22 0 -37 16t-16 36v230h-422v-845h704z" />
    <glyph glyph-name="mobile" unicode="&#xe837;" horiz-adv-x="580" 
d="M477 799q41 0 70 -29t29 -70v-768q0 -39 -29 -68t-70 -30h-374q-39 0 -69 30t-29 68v768q0 42 29 70t69 29h374zM290 -127q30 0 49 15t19.5 35.5t-19.5 34.5t-48 14t-49 -15t-21 -34t21 -35t48 -15zM497 21v650h-414v-650h414z" />
    <glyph glyph-name="clock" unicode="&#xe838;" horiz-adv-x="857" 
d="M499 509v-246q0 -6 -5 -11t-13 -5h-175q-7 0 -12 5t-5 11v36q0 8 5 12t12 5h123v193q0 8 5 13t12 4h35q8 0 13 -4t5 -13zM726 316q0 82 -40 150t-108 109t-149 40t-150 -40t-108 -109t-40 -150t40 -149t108 -109t150 -40t149 40t108 109t40 149zM849 316q0 -114 -56 -211
t-153 -153t-211 -57t-212 57t-152 153t-57 211t57 211t152 154t212 56t211 -56t153 -154t56 -211z" />
    <glyph glyph-name="chat" unicode="&#xe839;" 
d="M780 421q0 -75 -52 -140t-140 -102t-193 -37q-47 0 -96 9q-68 -48 -152 -71q-20 -5 -47 -9h-2q-6 0 -12 5t-5 12q-1 1 -1 3t1 4t1 3l2 6q1 3 2 3t3 3t2 2l13 13q10 10 15 16t12 17l13 20q6 9 11 25q-68 39 -106 96t-39 122q0 77 52 141t140 102t193 38t193 -38t140 -102
t52 -141zM990 282q0 -66 -39 -123t-106 -96q5 -14 11 -25t14 -20t12 -16t14 -17t13 -14l7 -7l2 -3l3 -10q0 -1 -1 -3q-2 -8 -7 -13t-12 -4q-28 4 -47 9q-84 23 -153 71q-49 -9 -96 -9q-148 0 -258 72q32 -3 48 -3q88 0 169 25t145 71q67 50 105 116t36 138q0 42 -13 84
q71 -39 112 -97t41 -126z" />
    <glyph glyph-name="tag" unicode="&#xe83a;" horiz-adv-x="857" 
d="M257 559q0 30 -21 51t-50 20t-51 -20t-21 -51t21 -49t51 -21t50 21t21 49zM850 240q0 -30 -20 -51l-273 -273q-22 -21 -51.5 -21t-49.5 21l-397 397q-21 21 -36 57t-15 65v231q0 29 21 50t50 22h232q29 0 64 -15t57 -36l398 -398q20 -20 20 -49z" />
    <glyph glyph-name="folder" unicode="&#xe83b;" horiz-adv-x="925" 
d="M918 439v-385q0 -50 -37 -86t-86 -36h-664q-49 0 -86 36t-36 86v524q0 50 36 86t86 37h176q49 0 86 -37t36 -86v-17h366q50 0 86 -36t37 -86z" />
    <glyph glyph-name="folder-open" unicode="&#xe83c;" horiz-adv-x="1071" 
d="M1061 249q0 -17 -18 -37l-187 -221q-24 -28 -67 -48t-81 -20h-608q-19 0 -33 7t-14.5 24t16.5 37l188 221q24 28 67 48t80 20h608q19 0 34 -7t15 -24zM869 441v-90h-465q-53 0 -110 -26t-92 -67l-188 -221l-2 -3l-1 7q-1 5 0 7v537q0 51 37 88t88 37h179q51 0 88 -37
t37 -88v-18h304q52 0 88 -37t37 -89z" />
    <glyph glyph-name="forward" unicode="&#xe83d;" 
d="M991 440q0 -15 -11 -25l-280 -281q-10 -11 -24 -11t-25 11t-10 25v140h-123q-54 0 -97 -3t-84 -12t-73 -23t-58 -38t-44 -56t-26 -75t-10 -99q0 -31 3 -68q0 -4 2 -13t1 -15q0 -8 -5 -14t-13.5 -5.5t-14.5 9.5q-4 5 -8 12t-7 17t-5 13q-70 156 -70 247q0 109 29 183
q89 221 480 221h123v141q0 13 10 24t25 10t24 -10l280 -281q11 -11 11 -24z" />
    <glyph glyph-name="reply" unicode="&#xe83e;" 
d="M991 176q0 -91 -69 -247q-1 -4 -6 -13t-7 -17t-7 -12q-7 -9 -15.5 -9t-13.5 5t-5 14q0 5 1 15t2 13q3 37 3 68q0 55 -9 99t-27 76t-44 55t-58 38t-73 23t-84 12t-97 3h-122v-140q0 -14 -10 -25t-26 -11t-24 11l-280 281q-11 10 -11 25t11 24l280 281q10 10 24 10t26 -10
t10 -24v-141h122q391 0 480 -221q29 -74 29 -183z" />
    <glyph glyph-name="cog" unicode="&#xe83f;" horiz-adv-x="857" 
d="M569 316q0 58 -41 100t-99 41t-99 -41t-41 -100t41 -99t99 -41t99 41t41 99zM850 376v-121q0 -7 -4 -13t-11 -7l-102 -16q-10 -29 -21 -50q19 -26 58 -76q6 -5 6 -12t-5 -13q-15 -21 -54 -60t-52 -38q-7 0 -14 5l-75 59q-25 -13 -51 -21q-8 -75 -15 -102q-4 -16 -20 -16
h-122q-8 0 -13 5t-6 12l-16 101q-27 9 -49 21l-78 -59q-6 -5 -14 -5t-13 5q-69 63 -91 93q-4 5 -4 12t5 12q8 12 28 37t29 39q-14 28 -22 54l-100 15q-7 1 -11 7t-5 12v122q0 7 5 13t10 7l102 16q8 24 21 50q-22 31 -59 75q-5 7 -5 13t4 13q15 19 54 59t52 39q7 0 15 -5
l76 -59q23 13 49 21q9 74 17 102q3 16 19 16h122q7 0 13 -5t7 -12l14 -101q28 -9 51 -20l77 58q5 5 12.5 5t14.5 -5q70 -66 90 -93q4 -5 4 -12t-4 -13l-29 -36q-20 -25 -29 -39q15 -28 23 -53l100 -16q7 -1 12 -7t4 -13z" />
    <glyph glyph-name="cog-alt" unicode="&#xe840;" horiz-adv-x="1071" 
d="M501 317q0 58 -42 99t-99 42t-99 -42t-42 -99t42 -100t99 -41t99 41t42 100zM923 35q0 29 -22 51t-49 20t-49 -20t-21 -51q0 -28 21 -49t49 -21t50 21t21 49zM923 598q0 29 -22 50t-49 20t-49 -20t-21 -50q0 -29 21 -50t49 -20t50 20t21 50zM711 367v-101q0 -6 -4 -11
t-7 -6l-86 -14q-6 -19 -18 -41q19 -27 49 -63q4 -6 4 -12t-4 -10q-11 -17 -45 -49t-41.5 -32.5t-12.5 3.5l-63 50q-21 -11 -42 -17q-6 -59 -13 -86q-4 -13 -17 -13h-102q-6 0 -11 4t-5 10l-13 84q-18 6 -41 18l-65 -50q-4 -4 -10.5 -4t-12.5 4q-78 74 -78 89q0 5 3 10
q5 8 23 29t26 34q-13 23 -20 45l-84 13q-5 1 -9 5t-3 11v102q0 5 3 10t9 6l85 14q7 18 18 41q-19 27 -49 63q-4 6 -4 12t4 11q11 15 45 48t43 32q6 0 12 -4l63 -49q19 10 42 18q6 59 13 85q3 12 16 12h102q6 0 11 -4t6 -9l13 -84q18 -6 41 -17l64 48q5 4 11.5 4t11.5 -4
q79 -73 79 -88q0 -4 -4 -10q-6 -9 -23 -30t-25 -33q13 -27 19 -45l84 -12q6 -2 8 -6t4 -11zM1063 74v-77q0 -9 -82 -17q-6 -15 -16 -28q28 -62 28 -76q0 -2 -2 -4q-67 -40 -68 -40q-5 0 -26 27l-28 36q-11 -1 -17 -1t-17 1q-6 -10 -28 -36t-25 -27q-1 0 -68 40q-3 2 -3 4
q0 14 29 76q-10 13 -17 28q-81 8 -81 17v77q0 9 81 17q7 16 17 29q-29 62 -29 76q0 2 3 4l19 11q17 10 33 18t16 9q4 0 25 -25t28 -38l17 1l17 -1q27 40 50 62l4 1q2 0 68 -38q2 -2 2 -4q0 -14 -28 -76q9 -13 16 -29q82 -8 82 -17zM1063 637v-77q0 -9 -82 -18
q-6 -14 -16 -28q28 -62 28 -76q0 -2 -2 -4q-67 -38 -68 -38q-5 0 -26 25t-28 38q-11 -1 -17 -1t-17 1q-6 -12 -28 -38t-25 -25q-1 0 -68 38q-3 2 -3 4q0 14 29 76q-10 14 -17 28q-81 9 -81 18v77q0 9 81 17q7 15 17 28q-29 62 -29 76q0 2 3 4l19 11q17 10 33 18t16 9
q4 0 25 -25t28 -37l17 1l17 -1q27 39 50 61l4 1q2 0 68 -38q2 -2 2 -4q0 -14 -28 -76q9 -13 16 -28q82 -8 82 -17z" />
    <glyph glyph-name="wrench" unicode="&#xe841;" horiz-adv-x="925" 
d="M209 26q0 14 -10 25t-25 10t-25 -10t-11 -25t11 -24t25 -11t25 11t10 24zM567 259l-379 -379q-21 -20 -50 -20t-51 20l-58 61q-21 20 -21 49t21 51l378 378q22 -54 63 -96t97 -64zM919 501q0 -22 -13 -59q-27 -74 -91 -121t-144 -46q-103 0 -176 73t-72 176t72 175
t176 73q32 0 67 -9t60 -26q9 -6 9 -15t-9 -16l-162 -94v-124l107 -60q2 2 44 27t74 45t40 20t13 -5t5 -14z" />
    <glyph glyph-name="quote-left" unicode="&#xe842;" horiz-adv-x="925" 
d="M916 -23h-339v340q0 141 100 239t239 100v-113q-94 0 -160 -67t-66 -159h226v-340zM350 -23h-340v340q0 141 100 239t240 100v-113q-94 0 -160 -67t-66 -159h226v-340z" />
    <glyph glyph-name="quote-right" unicode="&#xe843;" horiz-adv-x="925" 
d="M10 656h340v-339q0 -142 -99 -242t-241 -98v113q94 0 161 66t66 161h-227v339zM577 656h339v-339q0 -142 -99 -242t-240 -98v113q93 0 160 66t66 161h-226v339z" />
    <glyph glyph-name="gift" unicode="&#xe844;" horiz-adv-x="857" 
d="M516 47v392h-175v-392q0 -14 10 -21t25 -7h105q16 0 26 7t9 21zM267 508h106l-68 89q-15 16 -37.5 16t-38.5 -14t-14 -38t14 -37t38 -16zM643 561q0 22 -15 38t-37 14q-24 0 -38 -16l-68 -89h106q21 0 37 16t15 37zM849 421v-175q0 -7 -5 -12t-13 -5h-52v-228
q0 -22 -16 -36t-37 -16h-595q-21 0 -37 16t-15 36v228h-52q-8 0 -13 5t-5 12v175q0 8 5 13t13 5h240q-50 0 -87 35t-36 87t36 87t87 36q58 0 92 -42l70 -90l70 90q33 42 92 42q51 0 86 -36t36 -87t-36 -87t-86 -35h240q8 0 13 -5t5 -13z" />
    <glyph glyph-name="dollar" unicode="&#xe845;" horiz-adv-x="571" 
d="M542 158q0 -85 -55 -145t-142 -76v-95q0 -8 -5 -13t-13 -5h-73q-7 0 -13 5t-5 13v95q-37 5 -70 18t-56 25t-41 25t-25 21t-10 10q-9 12 -1 22l57 75q3 5 12 6t14 -5l1 -1q62 -54 133 -69q20 -4 41 -4q44 0 78 24t34 67q0 16 -9 29t-17 23t-33 21t-36 18t-45 17
q-20 9 -33 14t-34 15t-34 17t-31 19t-29 24t-25 26t-19 32t-11 36t-5 44q0 75 54 132t140 74v99q0 7 5 13t13 4h73q8 0 13 -4t5 -13v-97q32 -3 61 -13t47 -18t36 -20t20 -17t9 -7q9 -10 3 -21l-45 -80q-4 -9 -12 -10t-15 5l-8 7q-6 5 -21 14t-33 18t-41 14t-46 6
q-52 0 -86 -23t-32 -61q0 -14 4 -27t16 -23t22 -17t31 -18t33 -15t38 -15q30 -10 45 -16t42 -20t41 -24t34 -27t29 -35t18 -42t7 -51z" />
    <glyph glyph-name="euro" unicode="&#xe846;" horiz-adv-x="571" 
d="M546 54l19 -89q2 -6 -1 -12t-10 -8h-3q-2 -1 -6 -2t-9 -3t-12 -3t-14 -3t-15 -2t-19 -3t-21 -2t-21 0q-130 0 -226 72t-132 195h-52q-7 0 -13 5t-5 12v63q0 7 5 12t13 6h36q-1 30 0 57h-36q-8 0 -13 5t-5 13v64q0 7 5 12t13 5h54q37 116 134 187t222 71q57 0 107 -13
q6 -2 10.5 -8.5t2.5 -13.5l-24 -88q-2 -7 -8 -11t-13 -1l-2 1q-3 0 -7 1l-21 4q-12 2 -15 2l-32 2q-70 0 -125 -35t-83 -98h259q9 0 14 -7t3 -14l-12 -63q-3 -15 -18 -15h-271q-1 -20 0 -57h255q8 0 13 -7t4 -15l-14 -63q-1 -5 -6 -9t-11 -4h-214q27 -65 83 -104t126 -37
q10 0 20 1l35 4q7 1 13 3l10 3l7 1l3 2q7 2 14 -1.5t9 -11.5z" />
    <glyph glyph-name="pound" unicode="&#xe847;" horiz-adv-x="571" 
d="M566 149v-202q0 -8 -5 -13t-13 -4h-525q-7 0 -12 4t-5 13v82q0 8 5 13t12 5h54v210h-53q-7 0 -12 5t-5 13v72q0 8 5 13t12 5h53v122q0 94 67 155t173 61q102 0 184 -69q5 -5 6 -12t-4 -11l-56 -70q-5 -6 -12.5 -7t-13.5 4q-2 3 -14 11t-38 17t-50 10q-48 0 -76 -26
t-29 -67v-118h168q8 0 12 -5t5 -13v-72q0 -7 -5 -13t-12 -5h-168v-207h228v99q0 7 5 12t12 5h89q8 0 13 -5t5 -12z" />
    <glyph glyph-name="rupee" unicode="&#xe848;" horiz-adv-x="501" 
d="M496 514v-56q0 -7 -5 -12t-13 -5h-91q-12 -79 -70 -129t-151 -59q91 -97 251 -293q8 -9 2.5 -19t-16.5 -10h-107q-9 0 -14 7q-167 200 -272 312q-5 5 -5 12v69q0 8 5 13t13 5h61q72 0 116 23t56 69h-233q-8 0 -13 5t-5 12v56q0 8 5 13t13 5h225q-30 62 -146 62h-79
q-7 0 -13 5t-5 12v73q0 8 5 13t13 4h454q8 0 13 -4t5 -13v-56q0 -8 -5 -13t-13 -5h-127q26 -33 35 -78h93q8 0 13 -5t5 -13z" />
    <glyph glyph-name="yen" unicode="&#xe849;" horiz-adv-x="573" 
d="M336 -69h-94q-8 0 -13 5t-5 12v181h-157q-7 0 -13 5t-5 13v56q0 8 5 12t13 5h157v47h-157q-7 0 -13 5t-5 12v57q0 8 5 13t13 5h116l-175 316q-4 9 1 18t14 9h106q11 0 16 -10l118 -233q11 -21 31 -68q5 13 17 37t15 34l104 229q4 11 16 11h104q10 0 15 -8.5t1 -18.5
l-172 -316h118q7 0 13 -5t5 -13v-57q0 -7 -5 -12t-13 -5h-159v-47h159q7 0 13 -5t5 -12v-56q0 -8 -5 -13t-13 -5h-159v-181q0 -6 -5 -12t-12 -5z" />
    <glyph glyph-name="rouble" unicode="&#xe84a;" horiz-adv-x="711" 
d="M577 462q0 55 -36 88t-94 35h-174v-245h174q59 0 94 33t36 89zM706 462q0 -105 -69 -172t-178 -67h-186v-64h276q7 0 12 -5t5 -13v-69q0 -8 -5 -13t-12 -5h-276v-105q0 -8 -5 -12t-12 -5h-91q-8 0 -13 5t-5 12v105h-122q-8 0 -13 5t-5 13v69q0 8 5 13t13 5h122v64h-122
q-8 0 -13 5t-5 13v81q0 7 5 12t13 6h122v343q0 8 5 13t13 5h294q109 0 178 -67t69 -172z" />
    <glyph glyph-name="try" unicode="&#xe84b;" horiz-adv-x="639" 
d="M634 316q0 -104 -51 -192t-140 -140t-192 -51h-87q-8 0 -13 4t-5 13v333l-117 -36q-2 -1 -5 -1q-6 0 -11 4q-7 5 -7 14v70q0 12 13 17l127 39v49l-117 -35q-2 -1 -5 -1q-6 0 -11 3q-7 6 -7 15v69q0 13 13 18l127 38v137q0 7 5 12t13 5h87q7 0 12 -5t5 -12v-99l204 62
q9 3 16 -2t7 -14v-70q0 -12 -13 -17l-214 -66v-50l204 63q9 3 16 -3t7 -14v-70q0 -12 -13 -16l-214 -67v-265q103 8 173 83t71 178q0 8 5 13t13 5h87q8 0 12 -5t5 -13z" />
    <glyph glyph-name="won" unicode="&#xe84c;" 
d="M291 117l44 164h-87l41 -164q1 -1 1 -2v-2q0 1 1 2t0 2zM355 351l19 70h-160l17 -70h124zM460 351h75l-18 70h-39zM705 117l43 164h-89l45 -164v-2q0 -2 1 -2v4zM766 351l18 70h-162l18 -70h126zM990 334v-35q0 -8 -5 -13t-13 -5h-116l-89 -337q-4 -13 -17 -13h-87
q-14 0 -18 13l-90 337h-115l-91 -337q-4 -13 -17 -13h-87q-6 0 -11 4t-5 9l-88 337h-113q-8 0 -13 5t-5 13v35q0 7 5 12t13 5h96l-19 70h-77q-8 0 -13 5t-5 13v34q0 8 5 13t13 5h59l-49 188q-3 9 2.5 16t14.5 7h76q13 0 16 -14l49 -197h197l53 197q4 14 17 14h68
q14 0 18 -14l53 -197h200l51 197q3 14 17 14h75q9 0 14.5 -7t2.5 -16l-50 -188h60q8 0 13 -5t5 -13v-34q0 -8 -5 -13t-13 -5h-79l-19 -70h98q8 0 13 -5t5 -12z" />
    <glyph glyph-name="bitcoin" unicode="&#xe84d;" horiz-adv-x="711" 
d="M653 503q11 -107 -76 -151q68 -16 103 -60t26 -124q-5 -42 -19 -74t-38 -51t-56 -34t-71 -20t-85 -10v-148h-90v146q-47 0 -71 1v-147h-90v148q-10 0 -31 1t-32 0h-117l19 107h64q28 0 34 29v235h9h-9v169q-8 38 -53 38h-64v96l124 -1q37 0 56 1v148h90v-145q47 2 71 2
v143h90v-148q46 -4 82 -13t65 -26t49 -45t20 -67zM528 185q0 21 -8 37t-22 27t-34 18t-37 11t-44 5t-40 2t-37 0t-29 -2v-197h50q12 0 31 1l34 2q15 1 34 5t32 9l27 11q14 6 23 18t15 23t5 30zM487 462q0 20 -7 35t-18 24t-28 16t-32 10t-36 5t-33 1t-33 0t-23 -1v-179h48
q9 0 29 1t32 3t30 7t28 10t22 16t16 23t5 29z" />
    <glyph glyph-name="ok" unicode="&#xe84e;" 
d="M990 545q0 -25 -18 -43l-544 -544q-18 -17 -43 -17t-43 17l-315 315q-17 18 -17 43t17 43l86 86q18 18 43 18t43 -18l186 -187l415 416q18 18 43 18t43 -18l86 -86q18 -17 18 -43z" />
    <glyph glyph-name="chevron-left" unicode="&#xe84f;" horiz-adv-x="495" 
d="M5 316l383 384q18 18 42 18t42 -18t18 -43t-17 -42l-298 -299l298 -299q17 -17 17 -42t-17.5 -42.5t-41.5 -17.5t-43 18z" />
    <glyph glyph-name="chevron-right" unicode="&#xe850;" horiz-adv-x="495" 
d="M5 -24q0 24 17 42l300 298l-300 299q-17 17 -17 43t17 42t44 18t42 -18l382 -384l-382 -383q-19 -18 -42 -18t-44 18q-17 17 -17 43z" />
    <glyph glyph-name="export" unicode="&#xe851;" 
d="M8 -176v985h486v-162h-325v-661h662v181l161 171v-514h-984zM236 97q0 85 12 156t28 122t46 91t56 67t66 44t69 27t71 14l66 6q24 2 62 0v185l280 -281l-280 -281v202q-107 0 -157 -3t-119 -20t-100 -54t-60 -105t-40 -170z" />
    <glyph glyph-name="star" unicode="&#xe852;" horiz-adv-x="925" 
d="M919 414q0 -11 -15 -26l-198 -193l47 -274v-11q0 -11 -6 -19t-17 -9q-9 0 -21 7l-246 129l-245 -129q-12 -7 -23 -7t-16 9t-6 19q0 4 1 11l47 274l-199 193q-14 15 -14 26q0 21 31 26l274 39l123 249q11 23 27 23t27 -23l123 -249l274 -39q32 -5 32 -26z" />
    <glyph glyph-name="star-empty" unicode="&#xe853;" horiz-adv-x="925" 
d="M631 219l166 163l-230 33l-104 209l-103 -209l-231 -33l167 -163l-40 -230l207 109l207 -109zM919 414q0 -11 -15 -26l-198 -193l47 -274v-11q0 -28 -23 -28q-9 0 -21 7l-246 129l-245 -129q-12 -7 -23 -7t-16 9t-6 19q0 4 1 11l47 274l-199 193q-14 15 -14 26
q0 21 31 26l274 39l123 249q11 23 27 23t27 -23l123 -249l274 -39q32 -5 32 -26z" />
    <glyph glyph-name="plus-squared" unicode="&#xe854;" horiz-adv-x="857" 
d="M709 281v71q0 13 -10 24t-24 10h-176v176q0 15 -11 25t-24 10h-70q-15 0 -25 -10t-10 -25v-176h-175q-15 0 -25 -10t-11 -24v-71q0 -14 11 -25t25 -9h175v-176q0 -14 10 -25t25 -11h70q14 0 24 11t11 25v176h176q14 0 24 9t10 25zM850 580v-527q0 -65 -46 -111t-112 -47
h-526q-66 0 -112 47t-46 111v527q0 64 46 111t112 47h526q65 0 112 -47t46 -111z" />
    <glyph glyph-name="minus-squared" unicode="&#xe855;" horiz-adv-x="857" 
d="M709 281v71q0 13 -10 24t-24 10h-491q-15 0 -25 -10t-11 -24v-71q0 -14 11 -25t25 -9h491q14 0 24 9t10 25zM850 580v-527q0 -65 -46 -111t-112 -47h-526q-66 0 -112 47t-46 111v527q0 64 46 111t112 47h526q65 0 112 -47t46 -111z" />
    <glyph glyph-name="plus-squared-alt" unicode="&#xe856;" horiz-adv-x="785" 
d="M637 334v-35q0 -8 -5 -13t-12 -5h-192v-192q0 -8 -5 -12t-13 -5h-35q-8 0 -13 5t-5 12v192h-192q-7 0 -12 5t-5 13v35q0 7 5 12t12 5h192v193q0 7 5 12t13 5h35q8 0 13 -5t5 -12v-193h192q8 0 12 -5t5 -12zM707 89v455q0 36 -26 61t-61 26h-455q-36 0 -61 -26t-27 -61
v-455q0 -36 27 -61t61 -27h455q36 0 61 27t26 61zM777 544v-455q0 -65 -46 -111t-111 -46h-455q-65 0 -111 46t-46 111v455q0 64 46 110t111 47h455q64 0 111 -47t46 -110z" />
    <glyph glyph-name="minus-squared-alt" unicode="&#xe857;" horiz-adv-x="785" 
d="M637 334v-35q0 -8 -5 -13t-12 -5h-455q-7 0 -12 5t-5 13v35q0 7 5 12t12 5h455q8 0 12 -5t5 -12zM707 89v455q0 36 -26 61t-61 26h-455q-36 0 -61 -26t-27 -61v-455q0 -36 27 -61t61 -27h455q36 0 61 27t26 61zM777 544v-455q0 -65 -46 -111t-111 -46h-455q-65 0 -111 46
t-46 111v455q0 64 46 110t111 47h455q64 0 111 -47t46 -110z" />
    <glyph glyph-name="truck" unicode="&#xe858;" 
d="M337 62q0 30 -22 52t-50 21t-51 -21t-23 -52t23 -51t51 -21t50 21t22 51zM119 353h218v145h-90q-7 0 -12 -5l-111 -111q-5 -5 -5 -12v-17zM845 62q0 30 -21 52t-51 21t-51 -21t-22 -52t22 -51t51 -21t51 21t21 51zM990 679v-580q0 -8 -2 -15t-8 -11l-9 -6q-3 -2 -13 -4
t-13 -1t-15 0t-12 0q0 -60 -42 -103t-103 -42t-103 42t-43 103h-217q0 -60 -43 -103t-102 -42t-103 42t-43 103h-64q-4 0 -12 1t-13 4l-10 6q-5 3 -8 11t-2 15q0 15 10 25t26 11v223q0 5 2 19l3 22q1 8 8 17l13 17l112 112q11 11 29 18t33 8h91v108q0 16 11 27t25 10h581
q15 0 25 -10t11 -27z" />
    <glyph glyph-name="lifebuoy" unicode="&#xe859;" 
d="M500 808q100 0 191 -39t157 -104t105 -158t39 -191t-39 -191t-105 -157t-157 -104t-191 -40t-191 40t-157 104t-105 157t-39 191t39 191t105 158t157 104t191 39zM500 739q-104 0 -198 -51l107 -106q45 16 91 16t92 -16l107 106q-95 51 -199 51zM128 119l106 106
q-15 45 -15 91t15 92l-106 107q-50 -94 -50 -199t50 -197zM500 -106q104 0 199 50l-107 107q-46 -16 -92 -16t-91 16l-107 -107q94 -50 198 -50zM500 106q88 0 150 62t61 148t-61 150t-150 61t-149 -61t-62 -150t62 -148t149 -62zM766 225l106 -106q50 93 50 197t-50 199
l-106 -107q16 -45 16 -92t-16 -91z" />
    <glyph glyph-name="pencil" unicode="&#xe85a;" horiz-adv-x="857" 
d="M210 -33l50 51l-131 130l-50 -51v-60h71v-70h60zM500 483q0 12 -12 12q-5 0 -9 -4l-302 -301q-4 -4 -4 -10q0 -12 13 -12q5 0 9 4l302 301q3 4 3 10zM470 589l231 -231l-462 -463h-231v232zM850 536q0 -29 -20 -50l-93 -93l-231 232l93 92q20 21 49 21t51 -21l131 -131
q20 -22 20 -50z" />
    <glyph glyph-name="users" unicode="&#xe85b;" horiz-adv-x="1071" 
d="M334 316q-88 -3 -145 -70h-74q-44 0 -76 22t-30 65q0 194 67 194q4 0 25 -11t53 -23t65 -12q38 0 74 13q-3 -21 -3 -37q0 -77 44 -141zM923 -34q0 -65 -40 -104t-107 -38h-480q-67 0 -106 38t-41 104q0 29 2 57t8 60t14 60t24 53t34 45t47 29t61 11q6 0 24 -12t40 -25
t58 -27t75 -12t74 12t59 27t40 25l24 12q34 0 61 -11t46 -29t35 -45t23 -53t15 -60t8 -60t2 -57zM360 668q0 -58 -41 -100t-100 -41t-99 41t-42 100t42 99t99 42t100 -42t41 -99zM747 457q0 -87 -62 -149t-149 -62t-149 62t-62 149t62 149t149 62t149 -62t62 -149zM1063 333
q0 -42 -31 -65t-75 -22h-74q-56 67 -145 70q44 64 44 141q0 16 -3 37q37 -13 73 -13q33 0 66 12t53 23t24 11q68 0 68 -194zM993 668q0 -58 -41 -100t-100 -41t-99 41t-42 100t42 99t99 42t100 -42t41 -99z" />
    <glyph glyph-name="video" unicode="&#xe85c;" horiz-adv-x="1071" 
d="M220 -35v71q0 13 -10 24t-25 10h-71q-13 0 -24 -10t-11 -24v-71q0 -14 11 -25t24 -11h71q14 0 25 11t10 25zM220 175v71q0 14 -10 25t-25 10h-71q-13 0 -24 -10t-11 -25v-71q0 -14 11 -24t24 -10h71q14 0 25 10t10 24zM220 387v70q0 14 -10 24t-25 11h-71q-13 0 -24 -11
t-11 -24v-70q0 -15 11 -25t24 -11h71q14 0 25 11t10 25zM782 -35v281q0 14 -11 25t-24 10h-422q-14 0 -25 -10t-10 -25v-281q0 -14 10 -25t25 -11h422q14 0 24 11t11 25zM220 597v70q0 15 -10 26t-25 9h-71q-13 0 -24 -9t-11 -26v-70q0 -14 11 -24t24 -11h71q14 0 25 11
t10 24zM993 -35v71q0 13 -11 24t-25 10h-70q-14 0 -24 -10t-11 -24v-71q0 -14 11 -25t24 -11h70q15 0 25 11t11 25zM782 387v280q0 15 -11 26t-24 9h-422q-14 0 -25 -9t-10 -26v-280q0 -15 10 -25t25 -11h422q14 0 24 11t11 25zM993 175v71q0 14 -11 25t-25 10h-70
q-14 0 -24 -10t-11 -25v-71q0 -14 11 -24t24 -10h70q15 0 25 10t11 24zM993 387v70q0 14 -11 24t-25 11h-70q-14 0 -24 -11t-11 -24v-70q0 -15 11 -25t24 -11h70q15 0 25 11t11 25zM993 597v70q0 15 -11 26t-25 9h-70q-14 0 -24 -9t-11 -26v-70q0 -14 11 -24t24 -11h70
q15 0 25 11t11 24zM1062 685v-738q0 -36 -25 -62t-62 -26h-878q-36 0 -62 26t-26 62v738q0 36 26 62t62 26h878q36 0 62 -26t25 -62z" />
    <glyph glyph-name="menu" unicode="&#xe85d;" horiz-adv-x="857" 
d="M848 72v-70q0 -14 -10 -24t-25 -11h-768q-15 0 -25 11t-11 24v70q0 14 11 24t25 11h768q14 0 25 -11t10 -24zM848 352v-71q0 -14 -10 -24t-25 -10h-768q-15 0 -25 10t-11 24v71q0 13 11 24t25 10h768q14 0 25 -10t10 -24zM848 630v-69q0 -14 -10 -24t-25 -11h-768
q-15 0 -25 11t-11 24v69q0 15 11 26t25 10h768q14 0 25 -10t10 -26z" />
    <glyph glyph-name="desktop" unicode="&#xe85e;" horiz-adv-x="1071" 
d="M993 228v458q0 7 -5 11t-13 6h-878q-7 0 -12 -6t-6 -11v-458q0 -7 6 -11t12 -5h878q7 0 13 5t5 11zM1062 686v-597q0 -37 -25 -62t-62 -27h-298q0 -20 9 -42l25 -63q0 -14 -10 -25t-24 -11h-281q-15 0 -25 11t-11 25q0 8 9 24t18 39t9 42h-299q-36 0 -62 27t-26 62v597
q0 36 26 62t62 25h878q36 0 62 -25t25 -62z" />
    <glyph glyph-name="doc-inv" unicode="&#xe85f;" horiz-adv-x="857" 
d="M569 527v260q13 -8 21 -16l223 -224q8 -7 16 -20h-260zM499 509q0 -21 16 -36t37 -16h299v-580q0 -22 -15 -37t-38 -16h-738q-23 0 -37 16t-16 37v878q0 23 16 38t37 16h439v-300z" />
    <glyph glyph-name="circle" unicode="&#xe860;" horiz-adv-x="857" 
d="M849 316q0 -114 -56 -211t-153 -153t-211 -57t-212 57t-152 153t-57 211t57 211t152 154t212 56t211 -56t153 -154t56 -211z" />
    <glyph glyph-name="circle-empty" unicode="&#xe861;" horiz-adv-x="857" 
d="M429 615q-81 0 -150 -40t-108 -109t-40 -150t40 -149t108 -109t150 -40t149 40t108 109t40 149t-40 150t-108 109t-149 40zM849 316q0 -114 -56 -211t-153 -153t-211 -57t-212 57t-152 153t-57 211t57 211t152 154t212 56t211 -56t153 -154t56 -211z" />
    <glyph glyph-name="circle-thin" unicode="&#xe862;" horiz-adv-x="857" 
d="M429 667q-72 0 -136 -28t-112 -74t-75 -112t-28 -137t28 -136t75 -111t112 -76t136 -27t136 27t111 76t75 111t28 136t-28 137t-75 112t-111 74t-136 28zM849 316q0 -114 -56 -211t-153 -153t-211 -57t-212 57t-152 153t-57 211t57 211t152 154t212 56t211 -56t153 -154
t56 -211z" />
    <glyph glyph-name="mini-cart" unicode="&#xe863;" 
d="M230 501q0 18 12 31t30 13t31 -13t13 -30.5t-13 -30.5t-31 -13t-30 12.5t-12 30.5zM700 501q0 18 12.5 31t30 13t29.5 -13t12 -31t-12 -30.5t-29.5 -12.5t-30 13t-12.5 30zM220 620q-31 0 -57 -16t-41 -43.5t-15 -59.5l-66 -557q0 -32 15 -60t41 -44t56 -16h695
q30 0 55.5 16t40.5 44t15 60l-66 557q0 32 -15 59.5t-41 43.5t-57 16h-560zM764 620q-13 54 -50.5 97t-93 67.5t-118.5 24.5t-118.5 -24.5t-93 -67.5t-50.5 -97h79q18 53 68.5 87t114.5 34t114.5 -34t68.5 -87h79z" />
    <glyph glyph-name="paper-plane" unicode="&#xe864;" 
d="M977 803q18 -13 14 -36l-139 -843q-3 -16 -18 -25q-8 -5 -18 -5q-6 0 -13 3l-249 102l-133 -162q-9 -13 -26 -13q-7 0 -12 2q-11 4 -17 13t-7 21v192l475 580l-587 -508l-217 90q-20 8 -21.5 30t17.5 32l913 528q9 5 19 5t19 -6z" />
    <glyph glyph-name="attention-alt" unicode="&#xe865;" horiz-adv-x="357" 
d="M313 26v-157q0 -19 -14 -31t-31 -14h-179q-18 0 -32 14t-13 31v157q0 17 13 31t32 13h179q18 0 31 -13t14 -31zM334 763l-20 -537q-1 -17 -15 -31t-31 -13h-179q-18 0 -32 13t-15 31l-19 537q-1 18 13 32t30 14h224q18 0 32 -14t12 -32z" />
    <glyph glyph-name="info" unicode="&#xe866;" horiz-adv-x="357" 
d="M354 36v-70q0 -15 -10 -24t-25 -11h-280q-15 0 -25 11t-10 24v70q0 15 10 24t25 11h34v210h-34q-15 0 -25 11t-10 24v70q0 15 10 25t25 10h210q15 0 24 -10t11 -25v-315h35q14 0 25 -11t10 -24zM284 667v-105q0 -15 -11 -25t-24 -11h-140q-14 0 -25 11t-11 25v105
q0 13 11 24t25 11h140q15 0 24 -11t11 -24z" />
    <glyph glyph-name="compare-link" unicode="&#xe867;" horiz-adv-x="865" 
d="M314 467h479q26 0 44.5 -18.5t18.5 -44.5v-396q0 -26 -18.5 -45t-44.5 -19h-479q-26 0 -45 19t-19 45v396q0 26 19 44.5t45 18.5zM758 375h-410v-339h410v339zM615 552h-99v44h-408v-330h57v-93h-91q-27 0 -46 19t-19 45v387q0 26 19 45.5t46 19.5h478q26 0 44.5 -19.5
t18.5 -45.5v-72z" />
    <glyph glyph-name="cat-default" unicode="&#xe868;" 
d="M8 317q0 134 67 248q66 111 177 176q115 67 248 67t248 -67q111 -65 177 -176q67 -114 67 -247.5t-67 -248.5q-66 -111 -177 -177q-115 -67 -248 -67t-248 67q-111 66 -177 177q-67 115 -67 248z" />
    <glyph glyph-name="cat-computer" unicode="&#xe869;" 
d="M303 750q-21 -7 -31 -17q-11 -13 -17 -30q-1 -4 -2 -10l-2 -33v-50l6 -6l15 -2q18 0 23 1t6.5 4.5t1.5 8.5v29q0 32 4 40v0q0 2 6 8l4 4l3 2l4 2h594l4 -2q13 -7 16 -18q1 -4 2 -36v-375l-2 -8q-4 -11 -14 -16l-4 -2l-254 -2h-254l-4 -4q-2 -1 -2.5 -3.5t-0.5 -17.5
t0.5 -19t4.5 -5h4q41 -2 75 -2h76l2 -4q1 -2 1 -21q0 -15 -1 -19q-8 -4 -16 -4q-2 0 -8 -2l-19 -4l-9 -3q-23 -8 -26 -11l-2 -2l-2 -1l-3 -3q-17 -13 -9.5 -26.5t38.5 -24.5q20 -6 71 -15q15 -1 45 0q27 0 41 2q52 8 66 13l3 2l4 1q1 0 3 1l1 1q3 0 10 4.5t13 10t7 7.5t1 6
q0 9 -12 18t-34 16q-6 4 -38 10q-9 1 -12 2.5t-3.5 5.5t-0.5 17v16q1 4 2 5t20 2h107q71 0 127 2h6q36 8 52 45l1 8v226q0 225 -1 231q-11 34 -46 45l-8 4h-581q-49 -1 -52 -2zM34 546q-16 -3 -23 -18q-1 -3 -2 -44v-582l2 -4q9 -11 15 -15q3 -1 23 -2h256q22 1 25.5 3
t8.5 6l5 4l1 2q3 3 4 16q1 17 2 81v482q0 34 -1 44q-1 7 -4 11l-2 2q-3 5 -5.5 7t-8.5 5q-3 1 -22 2h-274zM307 489q4 -3 5 -9t1 -35v-28q-1 -8 -2.5 -10.5t-5.5 -3.5h-254l-2 2q-3 1 -4 2.5t-1 10.5v65l7 6h256zM305 358q4 -1 5.5 -3.5t2.5 -11.5v-65l-2 -4l-4 -2h-239
q-18 1 -19 2l-5 2v36q0 37 2 39v1q2 3 8 4t33 2h218zM187 99q14 -3 25 -12.5t16 -22.5q3 -19 -5 -35t-24 -23.5t-34 -3.5q-14 5 -23 15t-12 24q-3 6 -3 10.5t3 12.5q6 25 35 35q13 2 22 0z" />
    <glyph glyph-name="cat-couch" unicode="&#xe86a;" 
d="M343 807q-1 0 -2 -1q-4 -1 -8 -1l-10 -3q-14 -4 -21 -5q-27 -10 -51.5 -31t-38.5 -45q-14 -22 -21 -51q-3 -13 -3.5 -25.5t-0.5 -74.5l-2 -77h-18q-16 2 -38 -4l-9 -4q-13 -6 -15 -7q-24 -15 -35 -36q-2 0 -10 -20q-2 -2 -5 -16l-1 -3q-1 -5 -1 -110t1 -111
q3 -14 7 -22.5t11 -17.5q13 -23 40 -36q12 -7 25 -10q10 -2 30 -4h18l2 -125v-93q0 -27 1 -35q1 -6 4 -8l1 -1q3 -3 6 -4t12 -2h76l5 4q4 1 8 5t6 7q3 6 6 18l4 16q3 12 3 18q2 2 5 14l1 3q4 12 4 15.5t1.5 6.5t5.5 18l11 46q3 3 5 18q1 5 3 13l3 15q4 13 4.5 15t1.5 4t1 3
q5 26 8 29h252l4 -10q2 -13 6 -25q0 -5 4 -13q0 -3 1.5 -8t3 -8t1.5 -11l1 -4q1 -6 2 -8t2 -6.5t2 -5.5l4 -16q3 -12 3 -17.5t4 -11.5q0 -2 1 -8l1 -4l4 -12q0 -1 2 -11l3 -9q3 -12 4 -14t5 -18l4 -16q2 -13 5.5 -18t11.5 -10l6 -4h79q8 1 11 2q5 3 10 12q1 4 1 129v125h18
q19 0 40 6q29 9 48 32q8 8 12 14t9 19q1 3 4 11l2 8q0 4 2 5t2 107.5t-1.5 106.5t-2.5 1v3l-2 8q-3 9 -4 11l-4 8q-5 10 -17 25q-17 19 -34 26q-28 13 -52 10h-18l-2 77q0 81 -1 85q0 2 -1 6.5t-1 6.5q-6 25 -21 50t-35 45q-18 16 -43.5 27.5t-47.5 14.5q-2 0 -4 1l-1 1
q0 2 -156.5 2t-156.5 -2zM654 761q11 -2 28 -7l5 -1q21 -9 39 -26.5t28 -38.5q5 -10 10 -30l2 -7q1 -7 2 -21v-157l-2 -2q-29 -23 -39 -55q-3 -10 -3.5 -17.5t-0.5 -39.5v-42h-447v75q-1 9 -2 13q-3 14 -8 24.5t-14 22t-19 19.5l-2 2v84q0 65 0.5 78.5t3.5 27.5v1q2 7 5 16
l4 9q20 38 60 60q18 8 37 12l11 2h270q26 -1 32 -2zM179 447q12 -3 16 -5l5 -2q3 -2 11 -10t9 -12l2 -1q2 -3 2 -4q4 -4 5 -15q1 -4 2 -13v-45q0 -41 0.5 -48.5t4.5 -12.5v-1q6 -3 8.5 -4.5t37.5 -2.5h434q35 1 37.5 2.5t8.5 4.5l1 1q4 5 4.5 12.5t0.5 48.5q0 52 1 60
q5 21 20.5 34t35.5 16t38 -7q12 -5 21 -15t12 -21l1 -1q3 -9 3.5 -23t0.5 -89t-0.5 -89t-3.5 -23l-1 -2q-4 -12 -14.5 -22.5t-22.5 -15.5l-2 -1q-6 -3 -24.5 -3h-121.5h-509q-48 1 -53 2q-2 0 -7 1l-3 1q-12 5 -23 16t-13 22l-1 2q-4 9 -4.5 23t-0.5 89v84q1 16 2 20
q3 12 6 18.5t10 13.5q10 8 17.5 12t20.5 7q7 3 26 -2zM325 90q0 -1 -0.5 -3.5t-1.5 -6.5l-2 -6q-1 -4 -2 -5q0 -7 -3 -16q-4 -14 -4 -16.5t-2.5 -9t-3.5 -10.5q-4 -12 -4 -17t-1 -6.5t-4 -11.5q-3 -13 -4 -15t-1 -8q-1 -1 -2 -6l-1 -3q0 -2 -1 -8l-1 -4q-2 -4 -2 -8
q-2 -2 -5.5 -13.5t-4 -18t-4.5 -20.5l-3 -10h-37v224h86q8 -1 8 -2zM768 -19v-113h-38q-3 3 -7 28q0 5 -6 17l-4 22q-1 5 -1 7l-3 6q-1 4 -1 5q0 6 -2 6v6q-2 2 -5 14l-1 3q-4 14 -4 16.5t-4 18.5q-5 10 -5 17l-4 18q-4 14 -4.5 16t-1.5 7l-2 7q-1 3 -2 7v3h95v-111z" />
    <glyph glyph-name="cat-garden" unicode="&#xe86b;" 
d="M841 667q-9 -3 -14.5 -7t-9.5 -11q-1 -4 -1 -54v-51l-4 -4l-45 -35l-46 -39q-4 -3 -5 -5l-5 -4q-6 -5 -11 -10l-16 -13q-19 -16 -29 -24q-32 -27 -37 -29q-2 -4 -10 -8l-9 -9q-2 -2 -2 -1q-2 0 -2 24l-1 25q-3 97 -5 120l-2 65q-2 25 -3 31t-7 12l-2 2q-4 4 -12 5
q-12 1 -55 2h-310q-34 -1 -37 -2q-16 -6 -19 -23l-1 -7q-1 -19 -1 -30.5t-1 -23.5l-1 -9q-1 -1 -13 -2h-40q-53 0 -57 -2q-9 -3 -15 -16l-2 -6v-128q1 -10 2 -13q2 -7 13 -16l20 -12l3 -3q5 -3 7 -5q4 -1 9 -4l12 -7q12 -8 16 -12q3 -1 7 -3.5t5 -2.5l9 -6q4 -4 10 -7l2 -2
l-2 -30q-3 -66 -3.5 -90.5t-0.5 -102.5v-89q1 -14 2 -17.5t6 -7t9.5 -5t37.5 -2.5h371q29 0 37 2q6 1 10 5l2 3q6 5 7 11t-1 26v123q0 39 -2 101v20q0 6 -1 18l-1 7v10l6 4l5 5q11 9 18 14q11 11 49 41l30 25q15 12 17 13t8 7l23 20l39 31q18 15 24 21q1 2 16 13l11 8
q4 6 6.5 7t5.5 1q2 -2 9 -2l8 -1q9 -1 12 -1.5t12 -1.5t13 -2q12 0 28 -4q17 -2 26.5 0.5t16.5 9.5q5 6 7 11.5t2 13t-2 12.5t-11 15l-36 41q-8 9 -11 12q-16 16 -20 22l-33 35q-5 5 -10.5 8t-12.5 3t-12 -3zM530 565q2 -15 2 -64q1 -10 2 -34.5t2 -32.5l1 -53q2 -51 3 -74
q0 -11 1 -36l1 -25q2 -16 2 -125v-102h-367v82q0 86 2 106q0 8 1 26l1 11v25q2 8 2 40q4 53 6 101q0 11 1 28l1 7q0 22 1 38q1 46 3 87l1 21q1 1 29 2h139l166 -2v-26zM134 489q0 -8 -1 -48l-1 -33q-2 -6 -2 -21v-10q0 -2 -2 -2q-4 0 -4 2l-2 2q-3 2 -6 3.5t-6.5 4t-4.5 2.5
l-5 3q-13 8 -15 10q-4 0 -10 6l-8 6v79l10 1q13 0 24 -1h35z" />
    <glyph glyph-name="cat-gift" unicode="&#xe86c;" 
d="M363 807q-1 0 -2 -1t-2.5 -1t-10.5 -4l-14 -4q-9 -5 -19.5 -14t-12.5 -14q-6 -13 -8 -19t-2 -17.5t3.5 -21.5t11.5 -23q1 -3 3.5 -7t2.5 -5l6 -8q11 -13 19 -21q3 -2 5 -5l1 -2l-16 4q-6 3 -9.5 3t-14.5 6q-46 15 -96 25q-46 8 -82 10h-16l-4 -4q-10 -7 -10 -17.5
t8 -15.5l4 -4l24 -1l16 -2q13 -1 15 -2q17 -2 39 -6l7 -2q2 0 7 -1l3 -1q2 0 5 -1q7 -2 15 -3.5t32 -9.5q3 0 9 -3l2 -1q2 0 7 -1l3 -1q1 -1 3 -2h1q4 0 6 -1t9 -3l4 -1q3 0 11 -4l7 -3q6 -2 7 -2q4 0 6 -2l9 -3q3 -2 4 -2.5t5 -1.5l2 -1l4 -2q3 -2 4 -2q5 -2 15.5 -6.5
t11.5 -5.5q4 -1 -4 -1.5t-40 -0.5h-100q-114 0 -134.5 -0.5t-31.5 -3.5l-3 -1q-13 -6 -23 -17t-15 -23q-3 -9 -3.5 -19t-0.5 -57q0 -50 0.5 -60.5t5.5 -21.5v-1q5 -7 15 -18l5 -6q9 -7 22 -12q6 -1 10 -2h18q9 -1 16 -2h6v-398q1 -30 2 -36q6 -23 19 -36q17 -17 36 -26h1
q6 -2 18 -3q16 -1 74 -1h414q49 1 55 2q15 2 33.5 15.5t27.5 34.5l2 4q3 7 4 17q1 14 2 60v367h3q16 2 29 2q25 0 32 1t17 5q16 13 22 20q5 4 9.5 13t4.5 15l2 2q1 2 2.5 2t1.5 62.5t-1.5 62.5t-3.5 3l-1 3q0 5 -5 13.5t-9 12.5q-19 21 -40 25q-7 1 -27 2h-227
q-33 0 -41 0.5t-4 1.5q1 1 11 5.5t15 6.5l9 4q12 5 14 6l8 2q4 4 10 5t13.5 3.5l40.5 13.5l10 2q19 7 59 16q35 9 84 12q15 1 18 1.5t5 3.5q8 5 8 15q0 13 -10 18l-3 4h-20q-5 0 -17 -1l-13 -1l-14 -2q-28 -5 -40 -8q-4 0 -16 -3.5t-25 -6.5l-13 -4q-13 -3 -17 -4t-16 -5
l-5 -2q-7 -2 -8 -2t-3 -1t-3 -1q-4 0 -13 -3l-10 -4q-1 0 1 2.5t5 4.5q35 42 40 66q5 11 5 23t-4.5 22t-15.5 21.5t-23 17.5l-6 2q-12 6 -17 6q-1 0 -3 1l-1 1q-1 2 -14 2t-13 -2h-1q-2 -1 -3 -2q-5 0 -17 -6q-25 -13 -46 -46q-9 -13 -19.5 -36.5t-15.5 -38.5q0 -4 -2 -6
l-1 -3q-1 -5 -1 -7l-2 -3q-1 -2 -2 -2l-2 5q-3 6 -4 12q-3 12 -9 24l-2 7q-1 0 -1 4l-18 34q-16 25 -28 38q-14 14 -30 20l-6 3q-4 1 -5 1t-3 1t-2.5 2t-13 1t-12.5 -2zM386 763q14 -5 28.5 -23.5t26.5 -48.5l3 -10q2 -7 5 -11q0 -2 1 -7l1 -3q3 -5 6.5 -18.5t5.5 -23.5
q1 -3 3 -8l1 -5q3 -11 0 -11l-3 2q-4 2 -5 2l-6 3q-2 2 -12 10l-7 5l-6 6q-46 38 -65 58l-4 6q-11 16 -11 17l-4 4q-10 13 -10 26q0 8 2 12t8 8q10 8 21.5 11t20.5 -1zM632 763q22 -7 27 -18q5 -8 2 -19q-6 -19 -26.5 -42t-60.5 -56q-8 -7 -26 -20.5t-20 -13.5h-2v2q2 2 2 5
l6 23q0 4 4 16l2 5q1 3 2 4v6l6 13q1 11 16 45q23 43 45 52q4 2 10.5 1.5t12.5 -3.5zM477 447v-79q-1 -1 -35 -2h-285q-43 1 -45 2q-5 0 -8.5 2.5t-9.5 7.5l-1 2q-4 4 -5 8t-2 17v90q1 8 2 12q6 13 20 17q3 1 31 2h338v-79zM890 524q5 -1 11 -6.5t7.5 -10t2.5 -14.5v-101
l-4 -6q-6 -15 -21 -18q-4 -1 -184.5 -1t-180.5 1l-1 70q0 73 1 86q0 1 36 2h302q28 -1 31 -2zM477 324q2 -1 2 -227.5t-2 -228.5h-244q-17 1 -20 2q-18 9 -25 26q-1 4 -2 37v180q0 211 2 211q0 2 144.5 2t144.5 -2zM788 111v-213l-2 -6q-5 -12 -19 -20l-8 -4h-238
q-1 2 -1 228.5t1 227.5h267v-213z" />
    <glyph glyph-name="cat-shirt" unicode="&#xe86d;" 
d="M257 689q0 -1 -30 -16l-58 -29q-33 -17 -62 -31l-27 -13.5t-7 -4.5l-5 -3q-5 -1 -10 -4l-4 -2q-1 0 -5 -2l-2 -2q-6 -4 -10 -5t-4 -3q-16 -5 -21 -12q-2 -4 -2 -13t2 -11l16 -22l5 -9q9 -15 9.5 -15.5t3.5 -4.5l12 -19l4 -4l2 -6l4 -4l7 -10q0 -3 2 -5q4 -4 4 -5.5
t26 -38t28 -38.5t10 -6q3 -2 6 -1t16 5q2 0 10 4l12 1q4 4 10 4l5 2q4 1 5.5 1.5t5.5 1.5t6 1q8 4 12 4q1 1 3 2h5v-418l4 -4q3 -4 8 -8l4 -2h484l4 2q5 4 8 8l2 4l2 209v209h2q6 0 7 -2q3 0 11 -4q2 0 7 -1l3 -1q2 -1 6 -2t6.5 -1.5t6 -2t4.5 -2.5l11 -1q1 -1 4.5 -2.5
t5.5 -1.5q14 -4 16.5 -4.5t6.5 0.5q6 3 8.5 5.5t24.5 33.5t22 34l4 6l4 3q0 2 4 6q2 2 2 5l4 4l4 6l1 4l4 6l4 4l4 6v1l2 4l4 3l5 9q6 10 12 19l19 28v1q1 1 2 1t2 2v14q-1 2 -2 2l-2 2q-1 3 -6.5 7t-7.5 4l-1 1l-1.5 1.5t-4.5 0.5l-2 2q-1 0 -2 1t-2 1h-2l-2 2l-7 4
q-3 2 -4 2l-1 1q-2 1 -3 1h-1q-1 1 -1 2q-3 0 -9 4q-9 3 -12 6l-26 13q-32 15 -62 31l-38 19q-50 25 -50 26h-145q0 -1 -1 -2l-1 -1q-2 0 -6.5 -4.5t-6 -8t-1.5 -10.5q0 -29 -24 -56q-14 -12 -34 -19q-7 -3 -23 -3t-21 3q-19 4 -34 17.5t-22 32.5q-4 14 -4 25q0 4 -1 8l-1 3
q0 2 -4.5 7t-7 5.5t-2.5 2.5h-145zM374 640q0 -1 1 -3t1 -4t4 -14t7 -17l4 -4q3 -7 14 -18t19 -16q13 -11 28 -17q13 -6 32 -9q11 -1 15.5 -1t14.5 1l10 2h4q0 2 7 3t19.5 7t20.5 12.5t19 18t13 17.5q4 4 4 7q3 1 7 12t4 17q2 4 2 8h103l79 -40q46 -22 46 -24h4q0 -2 4 -2
l1 -2l4 -1q1 0 2 -1t2 -1h1q2 -1 3 -2t6 -2l8 -3q2 -2 6 -4l3 -2q2 0 7 -3t10 -7q13 -6 15.5 -8t0.5 -4t-2 -4l-4 -4q-1 -1 -2 -3v-2l-4 -3l-8 -12l-1 -4l-4 -6l-4 -4q0 -4 -6 -10l-5 -8q0 -2 -4 -6t-4 -6l-21 -31q-20 -31 -23 -31h-2q-3 1 -4 2l-10 2q-8 4 -11 4t-11 4
q-2 0 -6 1t-6 1q-4 4 -10 4q-8 2 -15 5l-3 1q-1 1 -2 5v13q-2 10 -2 20l-6 8q-7 7 -16 7t-15.5 -6.5t-7 -9t-1.5 -53.5v-420h-420v237q0 152 -1 232v5q0 2 -6.5 8.5t-16.5 6.5t-16 -7l-6 -8v-3q-2 -10 -2 -17q0 -16 -1 -18l-2 -1q-7 -2 -17 -5q-4 0 -12 -4l-3 -1
q-5 -1 -7 -1q-6 -4 -10 -4t-12 -4q-2 0 -7 -1l-3 -1q-1 -1 -4 -2h-2q-2 0 -20 28l-16 22l-34 52q0 2 -8 10q-1 4 -4 7l-2 2l-1 2q-1 2 -1 3l-3 4q0 1 -1 2t-1 2q-3 3 0 6q2 0 26 13l10 5q4 2 6 4l9 3l1 1q2 1 3 1l2 2q1 0 3 1l1 1q2 0 4 1h4q0 1 1 2h1q1 1 3 2h1l1 1
q1 1 2 1l2 2q3 0 61 31l60 29h101z" />
    <glyph glyph-name="cat-sport" unicode="&#xe86e;" 
d="M264 807q-1 0 -3 -1t-3 -1q-25 -3 -45 -21t-28 -43q-13 -37 6.5 -72t58.5 -47q6 -2 24 -2t24 2q45 12 65 60q4 14 4 31q0 13 -1 17.5t-5 14.5q-7 26 -30 42q-18 15 -41 18l-6 2q2 2 -9 2t-11 -2zM282 751q11 -3 22 -14q6 -9 8 -17q3 -13 -2.5 -23.5t-17.5 -18.5
q-6 -3 -8.5 -3.5t-10 -0.5t-15.5 4q-16 6 -22 25q-1 10 0 21q7 21 30 27q5 2 8 2t8 -2zM667 741q-6 -1 -15 -3q-17 -3 -33 -7l-6 -1q-13 -3 -23 -8q-7 -3 -13 -3q-1 0 -3 -1l-3 -3q-1 0 -6 -2q-9 -4 -15 -6q-11 -6 -28 -16l-34 -22q-3 -2 -6 -5q-18 -14 -24 -18l-1 -1
q-26 -25 -37 -37q-18 -19 -29 -36q-5 -6 -14 -19l-8 -12v-1q-1 -2 -2 -3q-6 -8 -14 -25t-13 -30q-4 -4 -4 -8q-1 -1 -5 -14.5t-4 -16.5l-4 -13q-6 -30 -9 -58q0 -15 -2 -17v-10q0 -9 -2 -17q0 -13 -4 -33q0 -6 -1 -17l-1 -11q0 -3 -1 -11l-1 -7q0 -13 -2 -21q0 -5 -1 -17
l-1 -15q-1 -5 -2 -16t-2 -14q0 -16 -2 -20v-8l-219 -220h-5q-19 0 -26 -15q-4 -6 -3.5 -13.5t4.5 -13.5t26 -27t27 -22.5t12 -1.5t11 1l1 1q7 5 11 10q2 3 2 5v19l26 27q26 24 96 94q69 68 81 81l3 2q13 11 15 11l3 1q4 1 8 1q48 4 64 6h21l5 1q8 1 12.5 1.5t24.5 1.5l14 1
q20 0 36 4h20q3 0 11 4q6 2 19 2q22 2 67 12l33 11q45 20 77 40q15 10 39 28q6 6 14 13l13 12q40 40 66 84q19 29 35 69q3 9 6 16l2 6l2 10q3 6 6 26q6 15 6 41l2 15q1 2 2 1v13v-1q-1 -1 -2 1l-2 19q-1 29 -12 60.5t-29 58.5q-37 54 -90 81q-8 4 -8 5q-4 2 -14 5t-17 4
q-24 8 -46 12q-37 4 -75 0zM773 678q32 -11 46 -22l6 -5q1 -1 -3 -6l-22 -21q-9 -10 -19 -19l-8 -8q-3 0 -27 25q-10 9 -18 18l-7 7q0 2 15 19l18 16h4q5 0 15 -4zM629 660q6 -5 12 -11q0 -1 -26 -27l-27 -25q-2 0 -23 21t-21 22t5 4l20 9q13 7 27 13t16.5 6t11.5 -8z
M873 603q5 -6 11 -17.5t7 -17.5l7 -25l2 -4l-18 -17q-18 -17 -18.5 -17.5t-26.5 25.5t-26 27l27 27q28 26 29 26l2 -2q2 -3 4 -5zM706 582q12 -12 24 -25q1 -1 -21.5 -25t-27.5 -27q-1 -1 -3 0l-25 25l-9 10q-15 16 -15 17t24 25t26 24t9.5 -6.5t17.5 -17.5zM523 582
q8 -9 17 -18l8 -7q0 -3 -26 -27q-24 -25 -27.5 -24t-26 23.5t-22.5 24.5t24.5 26.5t27.5 24.5l8 -7q9 -8 17 -16zM800 489q13 -12 25 -24l-27 -27l-27 -28l-25 28q-25 23 -25 27l7 8q9 10 18 18l22 22q4 3 5 2zM615 489q3 -3 8 -7l14 -14q3 -4 2.5 -5t-25 -26t-26.5 -25
t-27 25.5t-25 27.5t25 26t27 24l7 -6zM431 438q-9 -9 -19 -18l-9 -8q-2 0 -11 10.5t-9 13.5q0 5 12 34t18 35q0 1 4 -2l39 -38zM523 398l25 -26l-25 -25q-8 -9 -18 -19l-9 -8q-1 0 -26.5 25.5t-25.5 26.5l25 28l5 5q20 19 22 19q14 -14 27 -26zM706 400l19 -19l7 -9
q0 -1 -25.5 -26.5t-27 -25.5t-26 25t-24.5 27t25.5 27t26.5 25l7 -7q9 -9 18 -17zM875 414q11 -9 12.5 -12t0.5 -8l-1 -2q-6 -16 -17.5 -38t-14.5 -24q-1 0 -12 11l-10 10q-14 12 -18 16.5t-3 6.5t25.5 26t26 24t11.5 -10zM431 307q16 -17 20.5 -22.5t2.5 -6.5l-19 -18
q-29 -28 -30.5 -28t-8.5 13t-11 24q-3 7 -6.5 16.5t-3.5 13.5v6l23 22q4 5 5 5zM613 307q10 -9 20 -19l8 -9q0 -1 -26 -26l-27 -25q-1 0 -26.5 25t-25.5 26t25.5 27t26.5 26zM798 307l23 -24v-4q-2 -1 -20 -18.5t-23 -21.5q-2 -3 -6 -5l-3 -2q-1 0 -24.5 23t-23.5 24
t24.5 27t25.5 26t13 -11zM523 215l25 -27l-14 -14l-14 -16l-10 2l-10 3q-15 4 -25 9l-14 9q-11 7 -13 9l-2 2l25 24q24 23 25 23l9 -7q10 -9 18 -17zM700 220q11 -10 21 -21q-2 -4 -28.5 -17t-39.5 -14l-5 -2l-9 10q-4 4 -7 8l-3 4q0 2 24.5 26.5t26 24.5t20.5 -19zM359 201
q10 -14 24 -29q16 -16 30 -26l4 -4q4 -3 4 -4h-6l-4 -1q-8 -1 -12 -1l-8 -1q-12 -1 -17.5 -1t-15.5 -1l-4 -1h-6v6q0 14 4 52l1 8q2 7 3 7z" />
    <glyph glyph-name="cat-toys" unicode="&#xe86f;" 
d="M260 634q-14 -3 -34 -9t-26 -9q-3 0 -10 -5q-30 -13 -64 -45q-25 -28 -39 -60l-5 -12q-11 -22 -14 -27l-3 -9q-2 -7 -2 -9l-2 -3q0 -4 -1 -5.5t-4 -8.5l-3 -8q-9 -28 -14 -53l-2 -7q-1 -5 -1.5 -8t-4.5 -15l-2 -16q-4 -13 -9 -54q-7 -40 -8 -86q-1 -42 4 -72
q7 -49 27 -77q16 -24 42 -33q11 -3 16 -4q7 -2 19 -2q18 0 32 4q11 2 37 12q30 14 49 25.5t51 36.5l19 13q19 14 20 14l3 2q3 2 5 4l7 3q10 3 14 6l7 3q5 3 6 3l1 1q2 1 3.5 1t9.5 4q56 22 117 22t116 -22q8 -4 9.5 -4t3.5 -1l1 -1q3 0 19 -8l3 -2q13 -7 16 -7l4 -4
q2 0 39 -29q8 -5 22 -15t25 -16l12 -8q38 -19 40 -19h2v-2q1 0 7 -2l10 -4q16 -6 26.5 -8t24.5 -2q40 0 65 26q7 6 13.5 16t8.5 15q3 9 -2 17t-14 10q-8 3 -14 0t-13 -12q-4 -5 -14 -15l-5 -4q-10 -6 -25.5 -6t-32.5 6q-4 1 -23 10l-10 4q-10 4 -23 13l-3 2q-3 2 -12 7l-2 2
q-9 5 -30 22l-13 9q-31 22 -34 24q-1 0 -3 1l-7 3q-32 17 -38 19q-17 8 -50 18q-2 1 -7 2t-7 2l-8 2h-10q-15 4 -28 4q-9 1 -38 1t-39 -1q-14 0 -30 -4h-10l-8 -2q-8 -4 -12 -4q-21 -6 -33 -10q-1 -1 -4 -2t-5 -1.5t-5 -2.5l-2 -2l-3 -1q-19 -8 -26 -12q-11 -5 -22 -11
t-27 -18l-20 -14q-22 -18 -24 -18l-9 -6l-15 -11q-8 -4 -10 -4q-6 -5 -21 -12q-13 -5 -24 -9q-17 -6 -32.5 -6t-25.5 6q-24 14 -32.5 66t0.5 127q2 20 8 52q4 26 8 42q2 4 2 8t2 8q0 5 4 11l2 8q1 11 4 19l12 38q2 8 3 9l1 4q1 3 1 5q4 8 4 10l3 7q14 26 17 34l4 6
q2 4 10.5 15.5t12.5 14.5q20 20 33 28q4 3 18.5 10t16.5 7h5q4 4 26 8q9 2 33.5 2t32.5 -2q17 -4 29 -9q10 -3 31 -12q8 -5 20 -10l3 -2q26 -9 38.5 -10.5t52.5 -1.5q35 0 44.5 0.5t22.5 3.5l37 15q7 3 13 7q18 7 20 7l36 12q9 2 34.5 2t33.5 -2q20 -5 26 -7.5t14.5 -5.5
t9.5 -4l6 -2q18 -10 37 -28.5t33 -43.5l24 -54l2 -8l6 -14q3 -12 3 -16q1 -1 2 -4l2 -5q1 -6 4 -17t4 -16q1 -2 2 -7.5t2 -7.5q14 -45 21 -111q4 -30 4 -76q0 -7 2 -12l1 -3q6 -11 16.5 -12t19.5 8q5 4 6 11t-1 34q0 39 -4 76q-5 39 -17 89l-2 5q-2 7 -2 8.5t-1 5.5l-1 5
l-1.5 4.5t-1.5 5.5t-1 6l-8 23l-3 16q-2 7 -5 14l-5 11l-1 3q-1 5 -1 7q-4 4 -4 8t-4 8q0 1 -1 3l-1 1q0 2 -8 18t-11 20q-8 16 -22 32.5t-28 27.5q-22 18 -35 24l-6 4q-2 2 -15.5 7t-21.5 6l-4 1q-17 5 -29 7q-4 2 -31 2q-24 3 -37 0q-19 -2 -44 -10q-5 -3 -13.5 -6.5
t-17.5 -8.5l-39 -17q-14 -4 -21.5 -4.5t-39.5 -0.5t-39 0.5t-20 4.5l-8 3q-15 5 -32 14l-22 10q-4 2 -15 5q-8 3 -24 6l-16 4q-8 2 -31 2t-33 -2zM698 496q-10 -5 -16 -13t-9 -22q-1 -6 2.5 -14.5t10 -15.5t16.5 -9.5t21 1.5t18.5 14t7.5 22q0 23 -23 35q-6 3 -13.5 3.5
t-14.5 -1.5zM279 494q-10 -3 -13 -11q-2 -4 -3 -10q-1 -10 -1 -33v-39h-39q-23 -2 -44 -2q0 -1 -2 -2.5t-4 -1.5q-8 -7 -8.5 -16.5t5 -17t15.5 -8.5h77v-39q0 -30 0.5 -36t3.5 -9q3 -8 10.5 -11.5t14.5 -0.5q8 0 16 12l2 6v39q0 39 2 39h81l4 4q4 3 7.5 8.5t3.5 9.5
q0 7 -4.5 14t-10.5 10h-44l-39 2v72q-1 7 -2 10q-5 7 -13 10.5t-15 0.5zM613 412q-14 -6 -20.5 -19t-2.5 -29q2 -5 6.5 -10.5t9.5 -8.5q14 -10 31.5 -5.5t25.5 21.5q3 6 3 15t-3 15q-6 11 -19 19q-7 3 -16 4t-15 -2zM785 414q-8 -3 -15 -8.5t-7 -8.5l-2 -2q-1 -1 -3.5 -8
t-2.5 -10q0 -12 5.5 -20t14.5 -14t18 -6q16 0 27.5 11.5t11.5 28.5q0 11 -7 21t-18 14q-4 2 -22 2zM696 327q-4 -2 -10 -6.5t-7 -8.5q-9 -14 -6 -28q5 -16 19 -24.5t30 -2.5q13 3 20 12.5t7 22.5q0 24 -21 35q-8 2 -18 2t-14 -2z" />
    <glyph glyph-name="tag-line" unicode="&#xe870;" 
d="M941 322l-488 -489q0 -1 -2 -3q-6 -6 -15 -6t-15 6q-2 2 -2 3l-360 359l-3 2q-7 7 -5 16q-2 8 5 15l3 2l488 488q8 8 17 8h1v0h86q2 24 11.5 44.5t24.5 34.5v-1q5 8 17 8q9 0 15.5 -7.5t6.5 -17.5t-9 -19q-16 -16 -20 -42h102v0h1q11 0 17 -8l124 -125q8 -6 8 -17v-235v0
v0q0 -10 -8 -16zM720 474q-6 -8 -16 -8t-16.5 7.5t-6.5 18.5t8 18t15 19q-14 -4 -23 -15t-9 -26q0 -18 12 -30.5t30 -12.5t30.5 12.5t12.5 30.5q0 14 -9 27q-6 -15 -13 -26q-6 -7 -11 -12zM907 565l-115 115h-90q6 -13 15 -24v0q1 0 3 -2v1q18 -16 27.5 -39.5t9.5 -51.5v-2
q20 -11 31.5 -30.5t11.5 -43.5q0 -35 -25.5 -60.5t-60.5 -25.5t-60 25.5t-25 60t24 59.5t58 26q-3 29 -21 45q-1 0 -2 2l-1 1v-1q-25 24 -34 60h-81l-471 -470l334 -336l472 472v219zM293 247q6 6 14 6t14 -6l151 -152q7 -6 7 -14.5t-7 -14.5t-15 -6.5t-14 6.5l-150 151
q-7 6 -7 14.5t7 15.5zM378 332q6 6 14.5 6t15.5 -6l151 -151q5 -6 5 -15t-5.5 -15t-14.5 -6t-15 6l-151 151q-6 6 -6 15t6 15z" />
    <glyph glyph-name="bag1" unicode="&#xe871;" horiz-adv-x="772" 
d="M386 809q-58 0 -106 -28t-76.5 -76.5t-28.5 -105.5v-15h-148q-9 -1 -15 -7.5t-6 -14.5v-606q0 -36 17.5 -66.5t48 -48t66.5 -17.5h496q35 0 65.5 18t48.5 48t18 66v606q0 9 -7 15.5t-15 6.5h-146v15q0 57 -28 105.5t-77 76.5t-107 28zM386 763q47 0 85.5 -22t61 -59.5
t22.5 -82.5v-15h-336v15q0 45 22.5 82.5t60.5 59.5t84 22zM52 540h670v-584q0 -37 -25 -62.5t-62 -25.5h-496q-36 0 -61 26t-25 62zM196 484q-18 0 -31 -13t-13 -32t13 -32t31 -13t32 13.5t14 31.5t-13.5 31.5t-32.5 13.5zM577 484q-18 0 -31.5 -13t-13.5 -32t13.5 -32
t31.5 -13t31.5 13.5t13.5 31.5t-13 31.5t-32 13.5z" />
    <glyph glyph-name="search-1" unicode="&#xe872;" horiz-adv-x="1002" 
d="M978 -92l-349 350q33 44 51 96.5t18 109.5q0 93 -47 174q-46 78 -124 124q-81 47 -174 47t-174 -47q-77 -46 -123 -124q-47 -81 -47 -174t47 -174q46 -77 123 -123q81 -47 174 -47q58 0 110.5 17.5t95.5 50.5l351 -349q14 -15 34.5 -15t34.5 14.5t14 35t-15 34.5z
M353 218q-66 0 -123 33t-90 89.5t-33 123.5t33 123.5t90 89.5t123 33t123 -33t90 -89.5t33 -123.5t-33 -123.5t-89.5 -89.5t-123.5 -33z" />
    <glyph glyph-name="plus" unicode="&#xe873;" horiz-adv-x="925" 
d="M919 431v-228h-342v-343h-227v343h-342v228h342v341h227v-341h342z" />
    <glyph glyph-name="minus" unicode="&#xe874;" horiz-adv-x="925" 
d="M31 208v216h865v-216h-865z" />
    <glyph glyph-name="search-2" unicode="&#xe875;" 
d="M341 808l-2 -1q-8 -2 -13 -2q-24 -3 -36 -5.5t-36 -9.5q-45 -16 -69 -32q-3 -5 -9 -5l-6 -4q-3 -3 -5 -4l-2 -1q-1 0 -15 -10l-13 -11q-25 -21 -48 -48q-7 -9 -12 -16l-4 -8q-2 -3 -4 -4l-2 -4q-2 -3 -2.5 -3.5t-1.5 -3t-1 -4.5q-4 -3 -13.5 -22t-12 -26.5t-8 -22t-7 -22
t-5.5 -30.5l-4 -22q-2 -13 -2 -37.5t2 -38.5l8 -45q1 -8 6 -23q2 -9 12 -32l4 -9q4 -8 4.5 -10t4.5 -9l4 -8q22 -41 59 -78t80 -62q22 -12 37 -18q17 -7 43 -15q4 -1 21 -4l24 -5q15 -2 50 -2t50 2l23 4q18 4 23 5l10 3q18 6 20 8q4 0 11 5q7 1 21.5 8.5t17.5 10.5q3 0 11 4
q1 3 4 4h3l15 11q15 11 17 14l13 11q3 2 5.5 5t3.5 3l30 33l24 32q0 2 2 6l8 11q5 8 10 18l6 14q5 12 9 20.5t8 30.5l1 5q7 19 10 41q2 14 2 47.5t-2 52.5q-12 68 -34 110l-10 17q-14 23 -25 40q-42 48 -72 70l-16 10q-15 9 -16.5 10t-3.5 2l-1 1q-12 7 -34 17t-36.5 15
t-28 7.5t-42.5 5.5q-10 2 -34 3.5t-29 -0.5zM397 712q21 -3 36.5 -7t38.5 -13q25 -10 50.5 -28.5t42.5 -38.5q7 -7 16.5 -19t9.5 -15l4 -7q4 -5 11.5 -19t8.5 -20q9 -25 12 -44q3 -17 5 -42q0 -44 -7 -72l-6 -19q-3 -11 -4 -11v-5q0 -3 -15.5 -31t-19.5 -32l-3 -2
q-3 -2 -4 -5q-6 -7 -18.5 -19.5t-20.5 -19.5q-17 -15 -50 -32q-92 -44 -197 -16q-33 11 -54 25l-3 2q-5 2 -6 2q-8 6 -21 17q-17 14 -24.5 22t-20 22.5t-12.5 16.5l-1 2q-2 2 -3 5l-3 6q-15 26 -17 35q-2 2 -5 10l-2 3q-1 2 -4 15l-4 15q-1 8 -2.5 26t-1.5 29t1.5 30.5
t2.5 25.5q4 8 4 17q5 21 26 61q5 3 5 7q3 7 13.5 21t23 26t29 24.5t27.5 17.5q0 2 7 5l2 1q31 18 72.5 25.5t80.5 2.5zM714 183q-5 -11 -69 -72l-5 -4q-10 -7 -10 -9l38 -38q48 -47 92 -92q65 -67 93.5 -94.5t40.5 -37.5q8 -6 18 -9l2 -1q20 -6 39 5q22 8 33 30t4 42l-1 2
q-3 10 -8 17q-9 11 -36 40q-24 24 -94 95l-132 130q-2 0 -3.5 -1.5t-1.5 -2.5z" />
    <glyph glyph-name="bag-1" unicode="&#xe876;" 
d="M388 806q-6 -2 -12.5 -3t-9.5 -6q-14 -5 -32 -25q-5 -6 -11.5 -19t-6.5 -15l-1 -3q-1 -5 -2 -9t-2 -21v-137h-164l-2 -2q-1 -4 -3 -36t-2 -55l-1 -24q-1 -27 -1 -39q-2 -24 -2 -67l-1 -23q-1 -28 -1 -41q-2 -23 -2 -66l-1 -23q-2 -28 -2 -43q-4 -42 -4 -62q0 -43 -2 -65
q0 -12 -1 -41l-1 -25q0 -43 -3 -64q0 -13 -1 -39l-1 -29h711q57 1 57 2q0 27 -2 55q0 16 -1 49l-1 21q0 36 -3 57q0 14 -1 41l-1 20q0 42 -2 66q-2 21 -2 60l-1 24q-2 27 -2 39q-2 21 -2 61l-1 23q-1 27 -1 39q-2 22 -2 66q0 28 -5 71l-2 50h-164v136q-1 16 -2 22
q-5 21 -14 35.5t-23 24.5q-7 5 -17 11l-7 5q-3 0 -13 4q-8 2 -24 2.5t-90 0.5h-90q-17 -1 -23 -3zM602 733q5 -4 9 -9l7 -9v-147l-118 2h-116v68q-1 38 -1 55.5t2 25.5q2 4 6 9l9 7h183q16 -1 19 -2z" />
    <glyph glyph-name="online-support" unicode="&#xe877;" 
d="M500 809q-129 0 -219 -52q-80 -46 -123 -128q-39 -73 -43 -162v-145q-21 -24 -21 -66q0 -36 21.5 -64.5t55.5 -35.5q56 -143 116 -220q85 -112 191 -112q115 0 203 129h-54q-36 -43 -73 -64t-78 -21q-77 0 -143.5 77.5t-127.5 239.5l-5 12l-12 2q-22 0 -37 17t-15 40
q0 18 7 31l70 -33q5 -2 11 -1.5t10 3.5q8 5 8 18v153q45 0 120 17q57 13 105 35q57 26 95 62q36 -48 89 -80q32 -20 63 -30v-157q0 -13 9 -18q4 -3 9.5 -3.5t10.5 1.5l33 17v-72h-9l-13 -2l-4 -12q-33 -84 -66 -144q45 7 68 33q6 13 16 39q12 30 19 43q8 4 13 4v-15
q0 -35 -17 -64t-47 -46t-65 -17h-90q-7 18 -23.5 29.5t-37.5 11.5h-42q-26 0 -45 -19t-19 -44.5t19 -44.5t45 -19h42q21 0 37.5 11.5t23.5 30.5h90q47 0 86 23t62 62.5t23 85.5v21q26 0 45 19t19 45v87q0 26 -19 45t-45 19v86q-7 141 -82.5 218.5t-208.5 79.5l-44 44h-7z
M491 765l44 -42h8q141 0 207 -92q46 -64 50 -164v-86h-2q-10 -1 -16 -7.5t-6 -14.5v-40l-20 -11v136q0 8 -4 13.5t-11 6.5l-17 7q-22 9 -42 21q-29 17 -52 37q-29 25 -47 55q-5 10 -21 10q-6 0 -13 -7l-1 -1q-30 -35 -87 -63q-50 -24 -108 -37q-32 -8 -67 -12q-25 -4 -48 -6
l-19 -1q-8 -2 -13.5 -8t-5.5 -15v-136l-46 21v138q7 102 59 172q47 63 124 96q70 29 154 30zM820 337h22q9 0 14.5 -5.5t5.5 -14.5v-87q0 -8 -5.5 -14t-14.5 -6h-22v101v26zM478 18h42q10 0 16.5 -7t6.5 -15.5t-7 -15t-16 -6.5h-42q-9 0 -14.5 6.5t-5.5 15.5t5.5 15.5
t14.5 6.5z" />
    <glyph glyph-name="shopping-bag" unicode="&#xe878;" 
d="M500 809q-51 0 -94.5 -25.5t-69 -69t-25.5 -94.5v-39h-186l-3 -35l-38 -681l-3 -41h838l-42 757h-188v39q0 51 -25.5 94.5t-69 69t-94.5 25.5zM500 732q30 0 56.5 -15.5t42 -41t15.5 -55.5v-39h-228v39q0 30 15.5 55.5t42 41t56.5 15.5zM195 506h116v-114h75v114h228
v-114h75v114h116l33 -606h-676z" />
    <glyph glyph-name="us-dollar" unicode="&#xe879;" 
d="M500 809q-134 0 -249 -67q-111 -66 -176 -177q-67 -115 -67 -248.5t67 -248.5q65 -112 176 -177q115 -67 249 -67t249 67q111 65 176 177q67 115 67 248.5t-67 248.5q-65 111 -177 177q-114 67 -248 67zM500 767q123 0 227 -61q102 -60 162 -161q61 -105 61 -228
t-61 -228q-60 -102 -162 -162q-104 -61 -227 -61t-227 61q-102 60 -162 162q-61 105 -61 228t61 228q59 102 161 161q105 61 228 61zM481 624v-57q-53 -3 -87 -28q-26 -20 -39 -53q-9 -24 -9 -49q0 -49 24 -79q19 -25 58 -41q23 -9 73 -21q43 -10 61 -17q31 -11 46 -28
q18 -20 18 -51t-17 -56q-31 -43 -107 -43v0q-36 0 -66 16q-60 31 -58 112h-44q3 -91 54 -131q33 -25 93 -32v-57h41v57q62 4 99 35q28 23 40 58q7 22 7 41q0 46 -23 75q-20 24 -58 39q-23 9 -73 21q-43 10 -62 17q-30 12 -46 28q-18 20 -18 51q0 44 21 69q27 32 93 32
q105 0 111 -112h44q2 32 -12 63q-15 35 -44 57q-33 25 -79 27v57h-41z" />
    <glyph glyph-name="shipped" unicode="&#xe87a;" 
d="M48 677q-10 -4 -19 -14t-14 -21l-4 -6v-451q0 -57 1 -74q1 -14 3 -17q4 -15 13 -24t24 -15q4 -1 13 -2h73q10 -1 10 -2q2 0 2 -6q1 -10 9.5 -25.5t16.5 -23.5q18 -21 23 -23q1 0 3 -1t3 -1l6 -4q1 0 3 -1t3 -1q8 -4 10 -4q13 -6 38 -6t40 6q4 0 8 4q1 0 3 1l2 1q2 0 6 4
l6 2q8 3 26 23q7 8 14.5 23.5t8.5 25.5q1 1 2 3.5t2.5 3.5t147.5 1t147.5 -1t1.5 -7q3 -12 10 -26q8 -16 15 -23q18 -20 26 -23l1 -1q2 -1 4 -1q4 -4 6 -4l6 -2q8 -5 18 -7l4 -1q8 -3 25 -3t25 3h2l10.5 3t9.5 5l6 2q2 0 6 4q2 0 4 1l3 1q6 3 24 23q8 8 16 23.5t9 25.5
q0 6 3 7t15 1q25 0 31 6q0 2 4 2q1 0 10 9.5t9 11.5l2 2q4 4 4.5 9t1.5 23v202l-2 5q-1 3 -2 4q0 7 -7 23l-2 5l-16 27q-12 17 -48 65q-41 55 -46 60t-18 16l-5 4q-1 0 -4 2l-2 1q-1 1 -3.5 2t-2.5 2q-4 0 -4 2q-4 0 -12 4q-5 1 -19 2h-80q-43 0 -92 -2h-4q-1 0 -2 6v43
l-1 22q-1 27 -3 29q0 6 -4 10q-1 5 -8.5 12t-12.5 11l-3 2q-6 2 -12 3q-8 1 -35 1h-453q-35 -1 -39 -2zM566 638q3 -2 7.5 -6.5t4.5 -7.5v-3q2 -131 0 -264v-265h-171q-24 1 -24.5 1.5t-1.5 3t-2 3.5q0 9 -8 24q-7 13 -15 24q-6 7 -14 13.5t-12 7.5q0 1 -2.5 2t-3.5 2
q-4 4 -6 4l-2 1q-2 1 -3 1q-4 4 -8 4q-15 6 -39.5 6t-38.5 -6q-4 0 -8 -4q-2 0 -5 -1l-3 -1l-12 -8q-8 -4 -23 -21q-8 -10 -16.5 -24.5t-9.5 -23.5q0 -6 -2 -6q0 -1 -8 -2h-33q-29 0 -35 0.5t-10.5 3.5t-7.5 8l-4 5l2 259v222q1 37 1.5 40t4.5 7l2 1q3 1 39 2h420
q45 -1 47 -2zM717 407v-70q1 -21 2 -27.5t4 -9.5q0 -1 1 -2t1 -2t10 -11t11 -10h4q3 -3 9 -4.5t27 -1.5l68 -2h97v-157l-4 -6q-6 -6 -8 -8.5t-4.5 -3t-11 -0.5t-11 1t-2.5 7q-1 9 -9 23.5t-16 24.5q-6 6 -13.5 12.5t-9.5 8t-5 2.5l-3 2q-4 4 -6 4l-6 2q-4 4 -8 4
q-14 6 -39 6t-39 -6q-4 0 -8 -4l-6 -2q-2 0 -6 -4l-2 -1q-3 -1 -3 -3q-4 -1 -12 -7.5t-14 -13.5q-8 -10 -16 -24.5t-9 -23.5q0 -6 -2 -6q0 -2 -30 -2h-29v394l4 3q2 4 8 10l6 4h80v-96zM809 499q2 -1 5 -3q18 -12 26 -20q30 -40 45 -61q1 -2 4 -4l2 -2l1 -2l3 -3l2 -4
q2 -5 3 -6l8 -8l3 -5q3 -4 3 -5q10 -10 16 -19q4 -8 10 -16q7 -19 7 -29v-6h-86l-88 2l-5 2q-6 6 -8 10l-4 3v178q2 2 23 2q17 0 26 -3zM283 148q22 -6 37.5 -21.5t21.5 -36.5q2 -6 2 -17.5t-2 -17.5q-6 -22 -21.5 -37.5t-37.5 -21.5q-6 -1 -17.5 -1t-17.5 1
q-22 6 -37.5 21.5t-20.5 37.5q-1 6 -1 17.5t1 17.5q2 13 9.5 24.5t17.5 17.5q6 5 15 9.5t12 4.5l3 1q3 1 5.5 2t13 1t17.5 -2zM813 148q13 -3 25 -11t18 -17q17 -22 17 -46.5t-12 -42.5t-33 -29q-9 -5 -16 -6.5t-17 -1.5q-23 0 -41.5 12t-28.5 33q-5 9 -6.5 16.5t-1.5 17.5
q0 23 12 40.5t33 28.5l14 5q3 1 5 1q5 2 15 2t17 -2zM455 544l-2 -2q-7 -5 -9 -7t-8 -10l-8 -8q-8 -10 -20 -22l-12 -14q-6 -8 -9.5 -11t-7.5 -7.5t-4 -6.5l-27 -27q-8 -10 -18 -20q-9 -8 -20 -23l-3 -4q-18 -18 -20 -18l-6 4q-8 8 -9 10q-4 4 -6 4q-8 8 -26 23q-4 4 -6 4
q0 1 -6 8l-5 4l-7 5q-6 5 -7 5l-23 21q-2 0 -14 -15q-6 -6 -10 -11l-2 -3q0 -2 4 -5l20 -16q7 -8 21 -22q1 0 7 -5l7 -5l12 -11l17 -14l18 -18q6 -6 15 -13.5t10 -7.5l4 6q3 1 6 6l4 4q10 9 15 15l14 16q10 11 12 13q10 10 17 18l4 4q18 21 24 25l15 20l10 11q16 16 22 20
l13 18l5 5q11 11 13 14q10 9 15 17q4 5 4 7v2l-4 3q-5 4 -9 8l-14 12q-3 0 -6 -6z" />
    <glyph glyph-name="list" unicode="&#xe87b;" 
d="M8 809h984v-229h-984v229zM8 424h984v-226h-984v226zM8 53h984v-229h-984v229z" />
    <glyph glyph-name="money" unicode="&#xe87c;" 
d="M500 808q99 0 193 -38q95 -43 155 -104q66 -68 106 -159q38 -88 38 -189.5t-38 -192.5q-43 -95 -106 -156q-72 -71 -155 -105q-93 -39 -193 -39t-192 39q-89 36 -156 105q-62 64 -106 156q-38 91 -38 192.5t38 189.5q42 94 106 159q61 62 156 104q93 38 192 38zM500 -114
q92 0 167 34q85 39 137 93q56 53 93 135q34 82 34 170q0 85 -34 167q-34 78 -92.5 136.5t-137.5 91.5q-73 33 -167 33t-167 -33q-79 -33 -137.5 -91.5t-92 -137t-33.5 -166.5q0 -90 33 -170q37 -82 93 -135q52 -54 137 -93q75 -34 167 -34zM500 425q-20 0 -31 -15
q-15 -11 -15 -31q0 -11 17 -17l40 -17q31 -10 63 -27q34 -19 34 -62q0 -36 -24 -66q-22 -29 -53 -37v-36q0 -9 -9 -22q-10 -7 -22.5 -7t-20.5 7q-10 12 -10 22v36q-29 8 -53 37q-24 32 -24 66q0 10 9 20t23 10q11 0 20.5 -9t9.5 -21q0 -23 15 -33q12 -13 32 -13t30 13
q16 10 16 33q0 4 -3.5 7.5t-12.5 9.5l-2 1l-5 2q-20 6 -35 12q-24 8 -63 30q-34 18 -34 61q0 34 24 66q26 28 53 35v36q0 12 10 24q11 7 21 7t22 -7q9 -13 9 -24v-36q29 -8 53 -35q24 -30 24 -66q0 -8 -6 -18l-2 -3q-13 -11 -24 -11q-5 0 -11 3q-3 2 -10 8q-5 4 -6.5 9
t-1.5 12q0 19 -16 31q-10 15 -31 15z" />
    <glyph glyph-name="shipping" unicode="&#xe87d;" 
d="M958 362q14 0 20 -11q11 -9 11 -20v-173q0 -37 -27 -61q-22 -26 -61 -26h-48q-9 -38 -39 -61q-35 -27 -72 -27q-20 0 -38 8q-15 6 -34 19q-29 22 -39 61h-211q-9 -38 -39 -61q-35 -27 -72 -27t-72 27q-30 23 -39 61h-159q-8 0 -20 8q-7 8 -7 21t7.5 21t19.5 8h159
q9 37 39.5 62t71.5 25t71.5 -25t39.5 -62h211q9 38 39 62q18 13 34.5 19t37.5 6q41 0 71.5 -25t39.5 -62h48q9 0 19 10q11 6 11 19v144h-348q-11 0 -19 10q-9 8 -9 19v231q0 11 -10 21q-8 8 -20 8h-288q-13 0 -21 9t-8 19q0 14 8 22t21 8h288q36 0 62 -26q25 -23 25 -61v-14
h130q8 0 12 -2q8 -4 10 -8l150 -176h44zM612 362h227l-111 128h-116v-128zM309 43q26 0 41.5 17.5t15.5 40.5t-15 40q-19 17 -42.5 17t-40.5 -17t-17 -39.5t17 -41.5q14 -17 41 -17zM742 43q27 0 42 17.5t15 41t-16.5 40t-41 16.5t-40.5 -16t-16 -40.5t17 -41.5
q13 -17 40 -17zM194 477q-15 0 -20 8q-10 8 -10 19.5t10 21.5q7 7 20 7h127q12 0 22 -7q8 -12 8 -21.5t-8 -18.5t-22 -9h-127zM137 362q-16 0 -23 7q-8 12 -8 20.5t8 18.5q11 11 23 11h127q5 0 10.5 -3t8.5 -8q10 -8 10 -18.5t-10 -20.5q-5 -7 -19 -7h-127zM249 274
q0 -12 -8 -20q-10 -10 -21 -10h-127q-10 0 -20.5 10.5t-10.5 19.5t11 20q5 5 9 6.5t11 1.5h127q13 0 21 -8t8 -20z" />
    <glyph glyph-name="support" unicode="&#xe87e;" 
d="M983 347q9 -10 9 -24q0 -10 -9 -21l-76 -82q-2 0 -4 -2l-2 -2l-2 -1q-12 -3 -19 -3l-2 1q-11 3 -15 7l-78 82l-1 2q-7 12 -7 19q0 10 8 24q9 8 22.5 8t22.5 -8l22 -30q0 79 -31 152q-29 66 -82 124q-48 50 -124 85q-75 29 -153 29q-82 0 -152 -29q-78 -33 -124 -85
q-52 -52 -84 -124t-32 -152q0 -83 31 -152q34 -77 85 -124q47 -52 124 -84q69 -33 152 -33q52 0 100 13q43 12 90 36q37 21 80 59q38 38 63 78q6 10 19 13t24 -2q10 -11 12 -22q1 -4 0 -9.5t-4 -10.5q-31 -50 -72 -91q-47 -42 -92 -68q-39 -23 -106 -42q-56 -14 -114 -14
q-93 0 -177 35q-70 29 -144 98q-61 61 -97 142q-35 84 -35 178q0 91 35 175q36 81 97 145q68 64 144 95q78 37 176 37t176 -37q84 -34 144 -95q56 -56 99 -145q34 -81 34 -175h2l23 30q8 8 23 8q12 0 21 -8zM342 336q3 3 7 9l3 6q1 3 2 4l1 3q1 4 1 6v16q-4 4 -6.5 7.5
t-7.5 3.5q-2 2 -10.5 2t-12.5 -2q-7 0 -13 -7q-3 0 -8 -4l-4 -2q-10 -8 -15 -13l-40 44q4 5 13 13l5 5l6 4q6 3 9 6l15 7l6 2q6 2 10 2q10 4 18 4h19q16 0 23 -2q14 -3 23 -6t17 -11q10 -7 13 -15l3 -5q5 -8 5 -11q3 -7 3 -22v-15q0 -1 -1.5 -5.5t-1.5 -6.5q-3 -9 -6 -15
l-1 -3q-4 -7 -6 -10l-3 -5q-3 -3 -5 -7l-13 -13q-4 -9 -21 -21l-35 -32v-2h99v-59h-190v46l63 66l17 17l6 6q5 4 11 12zM644 186h-70v50h-105v53l109 159h66v-159h29v-53h-29v-50zM531 289h43v55q0 2 1 7l1 4v5h-2q-2 -3 -4 -8l-2 -5q-2 -3 -7 -11l-2 -2z" />
    <glyph glyph-name="bag-2" unicode="&#xe87f;" 
d="M853 532l61 -615q0 -37 -26 -66q-30 -27 -65 -27h-646q-35 0 -65 27q-26 29 -26 66l61 615q0 35 25 66q32 27 66 27h93v15q0 69 49 118q51 51 121 51t119 -51q49 -48 49 -118v-15h93q34 0 66 -27q25 -31 25 -66zM378 640v-15h244v15q0 25 -9 47.5t-26 38.5q-34 36 -87 36
t-86 -36q-36 -32 -36 -86zM823 -112q15 0 21 9q9 6 9 20l-61 615q0 13 -9 21q-7 6 -10 8q-6 3 -11 3h-93v-49q16 -8 21 -19q11 -14 11 -29q0 -23 -16 -38t-39.5 -15t-38 14.5t-14.5 38.5q0 17 9 29q5 10 20 19v49h-244v-49q15 -7 20 -19q9 -12 9 -29q0 -24 -14.5 -38.5
t-38 -14.5t-39 15t-15.5 38q0 16 10 29q5 11 21 19v49h-93q-12 0 -20.5 -10t-8.5 -22l-62 -615q0 -12 9 -20q5 -5 9.5 -7t11.5 -2h646z" />
    <glyph glyph-name="grid" unicode="&#xe880;" 
d="M8 809h229v-229h-229v229zM8 431h229v-229h-229v229zM8 53h229v-229h-229v229zM386 809h229v-229h-229v229zM386 431h229v-229h-229v229zM386 53h229v-229h-229v229zM763 809h229v-229h-229v229zM763 431h229v-229h-229v229zM763 53h229v-229h-229v229z" />
    <glyph glyph-name="bag-3" unicode="&#xe881;" 
d="M839 657h-184v59q0 38 -27.5 65.5t-65.5 27.5h-122q-38 0 -65.5 -27.5t-27.5 -65.5v-59h-186q-25 0 -43 -18t-18 -43v-710q0 -26 18 -44t43 -18h678q26 0 44 18.5t18 43.5v710q0 25 -18.5 43t-43.5 18v0zM408 716q0 13 9 21.5t23 8.5h122q14 0 23 -8.5t9 -21.5v-59h-186
v59zM839 -114h-678v710h186v-65l1 -8q2 -9 8 -14q8 -8 22.5 -8t22.5 8q5 5 7 14v73h186v-65l1 -8q1 -9 7 -14q8 -8 22 -8t22 8q6 5 8 14l1 8v65h184v-710z" />
    <glyph glyph-name="direction" unicode="&#xe882;" 
d="M937 522l-172 184q-9 10 -21 10h-257l-1 64q0 12 -9.5 20.5t-22.5 8.5t-20.5 -8.5t-7.5 -20.5l-1 -64h-339q-13 0 -22.5 -9t-9.5 -21v-370q0 -12 9.5 -21t22.5 -9h339v-433q0 -12 8.5 -20.5t21.5 -8.5t22 8.5t9 20.5v433h258q12 0 21 10l172 184q8 9 8 21t-8 21zM730 347
h-613v308h613l143 -154z" />
    <glyph glyph-name="home" unicode="&#xe883;" 
d="M984 315l-460 482q-10 10 -22.5 10t-22.5 -10l-463 -482q-9 -9 -8.5 -21.5t10 -21.5t22 -9t20.5 9l42 43v-458q0 -13 9 -22t22 -9h214q13 0 21.5 8.5t8.5 21.5l1 307h245v-306q0 -13 8.5 -22t21.5 -9h215q13 0 21.5 9t8.5 22v458l42 -43q9 -9 21.5 -9t21.5 8.5t9.5 21.5
t-8.5 22zM837 371v-484h-152v307q0 12 -9.5 21t-22.5 9h-305q-13 0 -21.5 -9t-8.5 -21l-1 -307h-154v484l-1 7l339 353l337 -352z" />
    <glyph glyph-name="magnifier" unicode="&#xe884;" 
d="M983 -121l-298 299q43 51 66 113.5t23 131.5q0 104 -52 194q-51 87 -137 138q-90 52 -194 52t-194 -52q-86 -51 -137 -138q-52 -90 -52 -194t52 -193q51 -87 138 -137q89 -52 193 -52q71 0 135.5 24.5t115.5 69.5l298 -301q9 -8 22 -8t21.5 9t8.5 21.5t-9 22.5zM391 101
q-87 0 -163 44q-72 43 -115 116q-44 75 -44 162t44 162q43 74 115 117q76 44 163.5 44t162.5 -44q73 -43 116 -116q44 -75 44 -163t-44 -163q-43 -73 -116 -115q-75 -44 -163 -44z" />
    <glyph glyph-name="magnifier-add" unicode="&#xe885;" 
d="M983 -121l-271 273q44 53 68 117q25 67 25 139q0 108 -54 201q-53 91 -143 143q-93 55 -202 55t-201 -55q-90 -52 -143 -143q-54 -93 -54 -201t54 -201q53 -91 143 -144q93 -55 201 -55q74 0 143 27q66 26 120 72l271 -273q9 -8 22 -8t21.5 9t8.5 21.5t-9 22.5zM406 71
q-91 0 -170 46q-76 45 -121 122q-46 79 -46 170t46 170q45 76 121 121q79 46 170 46t170 -46q77 -45 122 -121q46 -79 46 -170t-46 -170q-45 -76 -122 -121q-79 -47 -170 -47zM559 439h-122v123q0 12 -9 21t-22 9t-21.5 -9t-8.5 -21v-123h-123q-13 0 -22 -9t-9 -21t9 -21.5
t22 -9.5h123v-122q0 -13 9 -22.5t21 -9.5t21.5 9.5t9.5 22.5v122h122q13 0 22 9t9 22t-9 21.5t-22 8.5z" />
    <glyph glyph-name="magnifier-remove" unicode="&#xe886;" 
d="M983 -121l-271 273q44 53 68 117q25 67 25 139q0 108 -54 201q-53 91 -143 143q-93 55 -202 55t-201 -55q-90 -52 -143 -143q-54 -93 -54 -201t54 -201q53 -91 143 -144q93 -55 201 -55q74 0 143 27q66 26 120 72l271 -273q9 -8 22 -8t21.5 9t8.5 21.5t-9 22.5zM406 71
q-91 0 -170 46q-76 45 -121 122q-46 79 -46 170t46 170q45 76 121 121q79 46 170 46t170 -46q77 -45 122 -121q46 -79 46 -170t-46 -170q-45 -76 -122 -121q-79 -47 -170 -47zM559 439h-306q-13 0 -22 -9t-9 -21t9 -21.5t22 -9.5h306q13 0 22 9t9 22t-9 21.5t-22 8.5z" />
    <glyph glyph-name="phone-1" unicode="&#xe887;" 
d="M251 784q34 -46 119 -176l14 -22q18 -31 -6 -79l-14 -25q-20 -36 -34 -63q38 -55 128 -145q83 -83 144 -128l7 4q70 39 81 45q25 13 48 13q18 0 31 -7q72 -44 199 -132q21 -15 24 -42t-16 -58l-2 -3q-16 -21 -29 -36q-28 -34 -64 -65q-24 -21 -38 -29q-18 -11 -31 -11h-2
q-101 4 -226 80.5t-272 223.5q-297 297 -304 500q0 27 39 70q43 46 64 62q12 10 32 24l10 7q21 15 48 15q33 0 50 -23zM188 743q-39 -27 -76 -63q-36 -39 -41 -53q7 -178 284 -455q279 -276 455 -286q17 6 51 43l7 8q41 44 58 69q5 9 3 13q-94 67 -192 129q-7 0 -19 -6
l-14 -8q-39 -22 -72 -40l-32 -19l-33 21q-58 40 -154 136q-88 88 -134 154l-23 30l19 35q22 39 45 80l3 6q6 12 6 19q-81 128 -126 192h-2q-9 0 -13 -5z" />
    <glyph glyph-name="clock-1" unicode="&#xe888;" 
d="M500 809q-134 0 -248 -67q-112 -66 -177 -177q-67 -115 -67 -249t67 -248q65 -112 177 -177q114 -67 248 -67t248 67q112 66 177 177q67 115 67 248t-67 248q-65 112 -177 177q-114 68 -248 68zM500 -116q-116 0 -217 59q-97 58 -154 156q-59 100 -59 217t59 217
q57 98 154 156q101 59 217.5 59t216.5 -59q98 -57 155 -155q59 -101 59 -218t-59 -218q-57 -98 -155 -155q-100 -59 -217 -59zM531 329v295q0 13 -9 22t-22 9t-21.5 -9t-8.5 -22v-308q0 -13 8 -21l1 -1q0 -1 1 -1l153 -153q9 -9 21.5 -9t21.5 9t9 22t-9 21z" />
    <glyph glyph-name="heart" unicode="&#xe889;" 
d="M9 455q0 120 86 207q83 82 201 84t204 -77q86 79 204 77t201 -84q86 -87 86 -207t-86 -206l-340 -336q-27 -26 -65 -26t-65 26q-2 0 -340 336q-86 87 -86 206zM71 455q0 -95 69 -162l339 -336q21 -22 43 0l338 336q69 67 69 162t-69 162q-64 65 -157 67t-161 -59l-42 -38
l-42 38q-69 61 -161 59t-157 -67q-69 -66 -69 -162zM162 462q0 54 38 93t93 38q16 0 16 -16t-16 -16q-40 0 -70 -28t-29 -71q0 -16 -16 -16t-16 16z" />
    <glyph glyph-name="heart-1" unicode="&#xe88a;" 
d="M500 -105q-14 0 -24 10l-342 330l-15 15q-10 10 -30 36t-38 53t-29 66t-13 75q0 121 70 189t192 69q34 0 69 -12t66 -33t53 -37t41 -37q20 19 41 37t53 37t66 33t69 12q123 0 192 -69t69.5 -189t-125.5 -246l-340 -329q-10 -10 -25 -10z" />
    <glyph glyph-name="earphones-alt" unicode="&#xe88b;" 
d="M991 258q0 18 -2 59q-2 45 -4 59q-13 124 -81 224q-66 97 -170 153q-107 56 -231 56q-129 0 -240 -63q-108 -61 -174 -167q-68 -109 -75 -241l-3 -72v-13q-2 -12 -2 -18v-206q0 -34 23.5 -58t57.5 -24h83q34 0 58 24t24 58v206q0 34 -24 57.5t-58 23.5h-83q-5 0 -12 -1
l-4 -1q1 11 1 21q6 116 65 211q58 93 153 146q97 55 210 55q109 0 202 -49q90 -48 148 -133q59 -87 71 -196q2 -20 4 -55q-12 2 -18 2h-82q-34 0 -57.5 -23.5t-23.5 -57.5v-205q0 -23 11.5 -42.5t31.5 -29.5l-198 -77v5q0 13 -8.5 21.5t-21.5 8.5h-92q-13 0 -22 -8.5
t-9 -21.5v-30q0 -13 9 -22.5t22 -9.5h93l55 1l315 124q7 3 11 7q21 10 34 30t13 44v205q0 5 -2 15l1 2q1 4 1 6zM90 255h83q9 0 15 -6t6 -14v-206q0 -8 -6 -14t-15 -6h-83q-8 0 -13.5 6t-5.5 14v206q0 8 5.5 14t13.5 6zM808 235q0 8 5.5 14t14.5 6h82q8 0 13.5 -6t5.5 -14
v-205q0 -8 -5.5 -14t-13.5 -6h-82q-9 0 -14.5 6t-5.5 14v205z" />
    <glyph glyph-name="credit-card" unicode="&#xe88c;" 
d="M896 637h-792q-38 0 -65 -27t-27 -65v-457q0 -38 27 -65t65 -27h792q38 0 65 27t27 65v457q0 38 -27 65t-65 27zM104 576h792q13 0 22.5 -9t9.5 -22v-61h-856v61q0 13 9.5 22t22.5 9zM896 57h-792q-14 0 -23 9t-9 22v274h856v-274q0 -13 -9 -22t-23 -9z" />
    <glyph glyph-name="action-undo" unicode="&#xe88d;" 
d="M958 -96h-1q-11 0 -18 8t-8 20q-2 20 -12 49q-20 54 -58 98q-54 61 -139 96q-105 43 -253 43v-175q0 -9 -5 -16.5t-13 -11.5t-17 -3t-15 7l-399 329q-11 9 -11 24t12 24l398 326q6 6 14.5 6.5t17 -2.5t13.5 -11t5 -17v-172q133 -5 236 -47t170 -120q89 -105 110 -268
q11 -83 2 -160v-1q-2 -11 -10 -18.5t-19 -7.5zM438 280v0q143 0 248 -30q89 -26 154 -74q49 -37 89 -91q-8 62 -31 117q-26 67 -70 116q-63 72 -161.5 110t-228.5 38q-13 0 -22 8.5t-9 21.5v137l-318 -262l318 -264v143q0 10 9 20t22 10z" />
    <glyph glyph-name="envolope" unicode="&#xe88e;" 
d="M989 583q0 13 -3 18q-12 52 -74 52h-794q-28 0 -54 -10.5t-41 -29.5l-1 -1l-3 -3q-10 -10 -7 -26q-1 -2 -1 -7v-488q0 -25 16.5 -50t41.5 -41.5t49 -16.5h794q36 0 58 35q19 31 19 73v495zM118 591h794l-412 -328l-411 327q7 2 23 1h6zM912 42h-794q-13 0 -29 16.5
t-16 29.5v437l408 -326q6 -8 18 -8t22 8l407 326v-440q0 -20 -2 -28q-3 -15 -14 -15z" />
    <glyph glyph-name="chart" unicode="&#xe88f;" 
d="M270 501h-216q-13 0 -21.5 -9t-8.5 -22v-615q0 -13 8.5 -22t21.5 -9h216q12 0 21 9t9 22v615q0 13 -9 22t-21 9zM238 -115h-153v554h153v-554zM607 318h-215q-13 0 -22 -8.5t-9 -21.5v-433q0 -13 9 -22t22 -9h215q13 0 22 9t9 22v433q0 13 -9 21.5t-22 8.5zM577 -115
h-154v371h154v-371zM946 809h-215q-13 0 -22 -9t-9 -22v-923q0 -13 9 -22t22 -9h215q13 0 21.5 9t8.5 22v923q0 13 -8.5 22t-21.5 9zM915 -115h-153v863h153v-863z" />
    <glyph glyph-name="shopping-cart" unicode="&#xe8ba;" horiz-adv-x="890" 
d="M707 577q-5 45 -24.5 85t-51.5 71q-38 37 -85 56.5t-99 19.5h-4q-52 0 -99 -19.5t-84 -56.5q-32 -31 -51 -71.5t-24 -84.5h-175v-580q0 -47 23 -86.5t62.5 -63t86.5 -23.5h526q47 0 87 23.5t63.5 63t23.5 86.5v580h-175zM443 754h4q51 0 95.5 -23.5t73.5 -63.5t36 -90
h-413q7 49 36 89.5t73 64t95 23.5zM827 -3q0 -32 -16 -59t-43.5 -43t-59.5 -16h-526q-32 0 -59 16t-43 43t-16 59v526h123v-107q0 -10 6.5 -16.5t16.5 -6.5h2q9 0 16 6.5t7 16.5v107h421v-107q0 -10 6.5 -16.5t16.5 -6.5h2q10 0 16.5 6.5t6.5 16.5v107h123v-526z" />
    <glyph glyph-name="phone-2" unicode="&#xe8bb;" 
d="M209 154q145 -176 347 -272q48 -23 87 -36q56 -19 107 -22h14q74 0 125 53q0 1 1 1v0q12 15 39 42q14 11 29 28q32 35 32 74.5t-32 72.5l-123 123q-31 32 -72 32t-73 -32l-73 -73l-20 10q-13 6 -22 13q-98 61 -185 168q-39 49 -62 99q19 17 54 54q7 6 19 18
q34 34 34 73.5t-34 73.5l-60 61l-14 14l-7 7q-28 28 -42 41q-32 32 -72 32t-72 -32l-77 -77q-41 -40 -46 -100q-6 -71 28 -163q27 -73 68.5 -142t101.5 -141zM60 596q4 41 32 70l76 76q19 16 39 16q17 0 36 -17q21 -19 40 -40l14 -14l68 -68q20 -20 20 -38.5t-20 -38.5
l-19 -19q-22 -24 -56 -55q-1 0 -1 -1q-11 -11 -13 -24q-1 -8 3 -21h1v-1q20 -53 71 -117q91 -112 196 -180l28 -13l24 -14q9 -5 20 -5q17 0 31 14l75 76q20 18 38 18t36 -18l123 -123q19 -18 18.5 -38t-19.5 -39q-8 -9 -26 -27q-23 -21 -44 -44q-32 -38 -87 -38q-7 0 -10 1
q-45 3 -95 19q-36 12 -81 33q-191 93 -331 259q-110 134 -161 269q-30 81 -26 142z" />
    <glyph glyph-name="percent-circle" unicode="&#xe8bf;" 
d="M341 332q-39 0 -72 19t-52 52t-19 72t19 72t52 52t72 19t72 -19t52 -52t19 -72v0q0 -39 -19 -72t-52 -52t-72 -19v0zM341 545q-28 0 -48.5 -20t-20.5 -48.5t20.5 -49t49 -20.5t48.5 20t20 48v0v0q0 29 -20 49.5t-49 20.5v0zM659 15q-39 0 -72 19t-52 52t-19 72t19 72
t52 52t72 19t72 -19t52 -52t19 -72v0q0 -39 -19 -72t-52 -52t-72 -19v0zM659 228q-28 0 -48.5 -20t-20.5 -48.5t20.5 -49t48.5 -20.5t48 20t21 48v0v0q0 28 -20 48.5t-49 21.5v0zM355 66v0q-16 0 -26.5 10.5t-10.5 26.5q0 11 7 21l289 426q5 8 12.5 12.5t17.5 4.5
q16 0 26.5 -11t10.5 -26q0 -11 -6 -20l-290 -427q-5 -8 -12.5 -12.5t-17.5 -4.5v0zM499 -176q-133 0 -247 67q-111 66 -177 177q-67 115 -67 249t67 248q66 112 177 177q114 67 247 67t248 -67q111 -66 177 -177q68 -115 68 -248t-67 -248q-65 -112 -177 -177
q-115 -68 -249 -68zM499 736q-113 0 -211 -57q-94 -56 -150 -151q-57 -97 -57 -211t57 -211q56 -95 150 -151q98 -57 211 -57t211 57q95 56 150 151q58 97 58 211t-57 211q-56 95 -151 151q-97 57 -211 57z" />
    <glyph glyph-name="pulley" unicode="&#xe8c1;" 
d="M500 275q-34 0 -58 -24t-24 -58t24 -57.5t58 -23.5t58 23.5t24 57.5t-24 58t-58 24zM500 152q-19 0 -30 11.5t-11 29.5t11.5 30t30 12t29.5 -11.5t11 -30.5t-11 -30t-30 -11zM746 468v94q0 67 -33 123.5t-89.5 90t-123.5 33.5t-123.5 -33.5t-89.5 -90t-33 -123.5v-94
q-57 -50 -89 -120q-34 -73 -34 -155q0 -100 50 -186q49 -84 132 -133q86 -50 187 -50t187 50q83 49 132 133q50 86 50 186q0 81 -34 153q-31 67 -89 122zM500 767q57 0 104 -27t74 -74t27 -104v-61q-5 3 -17 10q-17 10 -24 15v36q0 45 -22 83t-59.5 60t-82.5 22t-82.5 -22
t-59.5 -60t-22 -83v-36q-7 -5 -24 -15q-12 -7 -17 -10v61q0 57 27 104t74 74t104 27zM623 542q-55 20 -122 20t-124 -20v20q0 35 16 63t44.5 44.5t62.5 16.5t62.5 -16.5t44.5 -44.5t16 -63v-20zM500 -94q-78 0 -145 39q-65 38 -103 103q-39 67 -39 145t39 145q38 66 103 104
q67 39 145 39t144 -38.5t104 -103.5q39 -67 39 -146t-38 -145t-104 -104t-145 -38z" />
    </font>
</defs>
</svg>
