<?xml version="1.0" standalone="no"?>
<!DOCTYPE svg PUBLIC "-//W3C//DTD SVG 1.1//EN" "http://www.w3.org/Graphics/SVG/1.1/DTD/svg11.dtd">
<svg xmlns="http://www.w3.org/2000/svg">
<metadata>Copyright (C) 2020 by original authors @ fontello.com</metadata>
<defs>
<font id="fa-solid-900" horiz-adv-x="1000" >
<font-face font-family="fa-solid-900" font-weight="400" font-stretch="normal" units-per-em="1000" ascent="850" descent="-150" />
<missing-glyph horiz-adv-x="1000" />
<glyph glyph-name="music" unicode="&#xf001;" d="M1000 788c0 42-41 72-81 59l-625-184c-26-9-44-33-44-60v-511c-20 5-40 8-62 8-104 0-188-56-188-125s84-125 188-125 187 56 187 125v456l500 147v-361c-20 5-40 8-62 8-104 0-188-56-188-125s84-125 188-125 187 56 187 125l0 688z" horiz-adv-x="1000" />

<glyph glyph-name="search" unicode="&#xf002;" d="M986-15l-194 195c-9 9-21 14-34 14h-31c54 69 86 155 86 250 0 224-182 406-407 406s-406-182-406-406 182-406 406-406c95 0 181 32 250 85v-31c0-13 5-25 14-34l195-194c18-19 48-19 66 0l55 55c19 18 19 48 0 66z m-580 209c-138 0-250 112-250 250 0 138 112 250 250 250 138 0 250-112 250-250 0-138-111-250-250-250z" horiz-adv-x="1000" />

<glyph glyph-name="heart" unicode="&#xf004;" d="M903 728c-107 91-266 75-364-27l-39-39-38 39c-98 102-258 118-365 27-123-105-129-293-19-406l378-391c24-25 64-25 88 0l378 391c110 113 104 301-19 406z" horiz-adv-x="1000" />

<glyph glyph-name="star" unicode="&#xf005;" d="M506 815l-127-258-285-42c-52-7-72-70-35-107l206-201-48-284c-9-51 45-90 90-66l256 134 255-134c45-24 99 15 90 66l-48 284 206 201c37 37 17 100-35 107l-285 42-127 258c-23 46-89 47-113 0z" horiz-adv-x="1125" />

<glyph glyph-name="user" unicode="&#xf007;" d="M438 350c138 0 250 112 250 250s-112 250-250 250-250-112-250-250 111-250 250-250z m175-62h-33c-43-20-92-32-142-32s-99 12-143 32h-32c-145 0-263-118-263-263v-81c0-52 42-94 94-94h687c52 0 94 42 94 94v81c0 145-118 263-262 263z" horiz-adv-x="875" />

<glyph glyph-name="film" unicode="&#xf008;" d="M953 725h-15v-39c0-13-11-23-24-23h-78c-13 0-23 10-23 23v39h-625v-39c0-13-11-23-24-23h-78c-13 0-23 10-23 23v39h-16c-26 0-47-21-47-47v-656c0-26 21-47 47-47h16v39c0 13 10 24 23 24h78c13 0 24-11 24-24v-39h625v39c0 13 10 24 23 24h78c13 0 24-11 24-24v-39h15c26 0 47 21 47 47v656c0 26-21 47-47 47z m-765-602c0-12-11-23-24-23h-78c-13 0-23 11-23 23v79c0 13 10 23 23 23h78c13 0 24-10 24-23v-79z m0 188c0-13-11-23-24-23h-78c-13 0-23 10-23 23v78c0 13 10 24 23 24h78c13 0 24-11 24-24v-78z m0 187c0-12-11-23-24-23h-78c-13 0-23 11-23 23v79c0 13 10 23 23 23h78c13 0 24-10 24-23v-79z m531-406c0-13-11-23-24-23h-390c-13 0-24 10-24 23v188c0 13 11 23 24 23h390c13 0 24-10 24-23v-188z m0 328c0-13-11-23-24-23h-390c-13 0-24 10-24 23v188c0 13 11 23 24 23h390c13 0 24-10 24-23v-188z m219-297c0-12-11-23-24-23h-78c-13 0-23 11-23 23v79c0 13 10 23 23 23h78c13 0 24-10 24-23v-79z m0 188c0-13-11-23-24-23h-78c-13 0-23 10-23 23v78c0 13 10 24 23 24h78c13 0 24-11 24-24v-78z m0 187c0-12-11-23-24-23h-78c-13 0-23 11-23 23v79c0 13 10 23 23 23h78c13 0 24-10 24-23v-79z" horiz-adv-x="1000" />

<glyph glyph-name="th" unicode="&#xf00a;" d="M292 741v-157c0-25-21-46-47-46h-198c-26 0-47 21-47 46v157c0 26 21 47 47 47h198c26 0 47-21 47-47z m354-469v156c0 26-21 47-47 47h-198c-26 0-47-21-47-47v-156c0-26 21-47 47-47h198c26 0 47 21 47 47z m62 469v-157c0-25 21-46 47-46h198c26 0 47 21 47 46v157c0 26-21 47-47 47h-198c-26 0-47-21-47-47z m-62-157v157c0 26-21 47-47 47h-198c-26 0-47-21-47-47v-157c0-25 21-46 47-46h198c26 0 47 21 47 46z m-401-109h-198c-26 0-47-21-47-47v-156c0-26 21-47 47-47h198c26 0 47 21 47 47v156c0 26-21 47-47 47z m-245-359v-157c0-26 21-47 47-47h198c26 0 47 21 47 47v157c0 26-21 47-47 47h-198c-26 0-47-21-47-47z m755 109h198c26 0 47 21 47 47v156c0 26-21 47-47 47h-198c-26 0-47-21-47-47v-156c0-26 21-47 47-47z m0-313h198c26 0 47 21 47 47v157c0 26-21 47-47 47h-198c-26 0-47-21-47-47v-157c0-26 21-47 47-47z m-401 204v-157c0-26 21-47 47-47h198c26 0 47 21 47 47v157c0 26-21 47-47 47h-198c-26 0-47-21-47-47z" horiz-adv-x="1000" />

<glyph glyph-name="check" unicode="&#xf00c;" d="M340-8l-325 325c-20 19-20 51 0 71l70 70c20 20 52 20 71 0l219-219 469 469c20 20 51 20 71 0l70-70c20-20 20-52 0-71l-575-575c-19-20-51-20-70 0z" horiz-adv-x="1000" />

<glyph glyph-name="times" unicode="&#xf00d;" d="M474 350l196 195c24 24 24 63 0 87l-44 44c-24 24-63 24-87 0l-195-196-196 196c-24 24-63 24-87 0l-43-44c-24-24-24-62 0-87l195-195-195-195c-24-24-24-63 0-87l43-44c24-24 63-24 87 0l196 196 195-196c24-24 63-24 87 0l44 44c24 24 24 63 0 87l-196 195z" horiz-adv-x="688" />

<glyph glyph-name="search-plus" unicode="&#xf00e;" d="M594 475v-62c0-13-11-24-24-24h-109v-109c0-13-11-24-23-24h-63c-13 0-23 11-23 24v109h-110c-13 0-23 11-23 24v62c0 13 10 23 23 23h110v110c0 13 10 23 23 23h63c12 0 23-10 23-23v-110h109c13 0 24-10 24-23z m392-556l-55-55c-18-19-48-19-66 0l-195 194c-9 9-14 21-14 34v31c-69-53-155-85-250-85-224 0-406 181-406 406s182 406 406 406 407-182 407-406c0-95-32-181-86-250h31c13 0 25-5 34-14l194-195c19-18 19-48 0-66z m-314 525c0 147-119 265-266 265s-265-118-265-265 118-266 265-266 266 119 266 266z" horiz-adv-x="1000" />

<glyph glyph-name="cog" unicode="&#xf013;" d="M952 233l-83 48c8 46 8 92 0 138l83 48c10 5 14 16 11 27-22 70-59 132-107 185-8 8-20 10-29 4l-83-48c-35 30-75 54-119 69v96c0 11-8 20-18 23-72 16-145 15-214 0-10-3-18-12-18-23v-96c-43-16-84-39-119-69l-83 48c-9 6-21 4-29-4-48-53-85-115-106-185-4-11 1-22 10-28l83-48c-8-45-8-91 0-137l-83-48c-9-5-14-17-10-27 21-70 58-133 106-185 8-8 20-10 29-4l83 48c35-30 76-54 119-69v-96c0-11 8-21 19-23 71-16 145-15 213 0 11 2 18 12 18 23v96c44 16 84 39 119 69l83-48c10-6 22-4 29 4 48 52 85 115 107 185 3 11-1 22-11 27z m-452-39c-86 0-156 70-156 156s70 156 156 156 156-70 156-156-70-156-156-156z" horiz-adv-x="1000" />

<glyph glyph-name="tag" unicode="&#xf02b;" d="M0 358v398c0 52 42 94 94 94h398a94 94 0 0 0 67-27l414-414c36-37 36-96 0-133l-399-399c-37-36-96-36-133 0l-413 414a94 94 0 0 0-28 67z m219 367c-52 0-94-42-94-94s42-93 94-93 94 42 94 93-42 94-94 94z" horiz-adv-x="1000" />

<glyph glyph-name="tags" unicode="&#xf02c;" d="M973 409l-414 414a94 94 0 0 1-67 27h-398c-52 0-94-42-94-94v-398a94 94 0 0 1 28-67l413-414c37-36 96-36 133 0l399 399c36 37 36 96 0 133z m-754 129c-52 0-94 42-94 93s42 94 94 94 94-42 94-94-42-93-94-93z m1004-262l-399-399c-37-36-96-36-133 0l0 1 340 340c33 33 51 78 51 124s-18 92-51 125l-384 383h95a94 94 0 0 0 67-27l414-414c36-37 36-96 0-133z" horiz-adv-x="1250" />

<glyph glyph-name="book" unicode="&#xf02d;" d="M875 147v656c0 26-21 47-47 47h-640c-104 0-188-84-188-187v-625c0-104 84-188 188-188h640c26 0 47 21 47 47v31c0 15-7 28-17 37-9 30-9 116 0 146 10 8 17 21 17 36z m-625 441c0 7 5 12 12 12h414c6 0 12-5 12-12v-39c0-6-6-11-12-11h-414c-7 0-12 5-12 11v39z m0-125c0 7 5 12 12 12h414c6 0 12-5 12-12v-39c0-6-6-11-12-11h-414c-7 0-12 5-12 11v39z m495-488h-557c-35 0-63 28-63 63 0 34 28 62 63 62h557c-4-33-4-92 0-125z" horiz-adv-x="875" />

<glyph glyph-name="adjust" unicode="&#xf042;" d="M16 350c0-267 217-484 484-484s484 217 484 484-216 484-484 484-484-216-484-484z m484-359v718c199 0 359-160 359-359 0-199-160-359-359-359z" horiz-adv-x="1000" />

<glyph glyph-name="play" unicode="&#xf04b;" d="M829 431l-688 406c-55 33-141 1-141-81v-812c0-74 80-118 141-81l688 406c61 37 61 126 0 162z" horiz-adv-x="875" />

<glyph glyph-name="chevron-left" unicode="&#xf053;" d="M67 383l380 380c18 18 48 18 66 0l45-45c18-18 18-47 0-66l-301-302 301-302c18-19 18-48 0-67l-45-44c-18-18-48-18-66 0l-380 380c-18 18-18 48 0 66z" horiz-adv-x="625" />

<glyph glyph-name="chevron-right" unicode="&#xf054;" d="M558 317l-380-380c-18-18-48-18-66 0l-45 44c-18 19-18 48 0 67l301 302-301 302c-18 19-18 48 0 66l45 45c18 18 48 18 66 0l380-380c18-18 18-48 0-66z" horiz-adv-x="625" />

<glyph glyph-name="times-circle" unicode="&#xf057;" d="M500 834c-268 0-484-216-484-484s216-484 484-484 484 216 484 484-216 484-484 484z m238-611c9-9 9-24 0-33l-78-77c-9-10-24-10-33 0l-127 128-127-128c-9-10-24-10-33 0l-77 77c-10 9-10 24 0 33l128 127-128 127c-10 9-10 24 0 33l77 78c9 9 24 9 33 0l127-129 127 129c9 9 24 9 33 0l78-78c9-9 9-24 0-33l-129-127 129-127z" horiz-adv-x="1000" />

<glyph glyph-name="check-circle" unicode="&#xf058;" d="M984 350c0-267-216-484-484-484s-484 217-484 484 217 484 484 484 484-216 484-484z m-540-256l359 359c13 12 13 32 0 44l-44 44c-12 13-32 13-44 0l-293-293-137 137c-12 12-32 12-44 0l-44-44c-13-12-13-32 0-44l203-203c12-13 32-13 44 0z" horiz-adv-x="1000" />

<glyph glyph-name="info-circle" unicode="&#xf05a;" d="M500 834c-267 0-484-217-484-484 0-268 217-484 484-484s484 216 484 484c0 267-216 484-484 484z m0-214c45 0 82-37 82-82s-37-82-82-82-82 36-82 82 37 82 82 82z m109-497c0-12-10-23-23-23h-172c-13 0-23 11-23 23v47c0 13 10 24 23 24h24v125h-24c-13 0-23 10-23 23v47c0 13 10 24 23 24h125c13 0 24-11 24-24v-195h23c13 0 23-11 23-24v-47z" horiz-adv-x="1000" />

<glyph glyph-name="arrow-left" unicode="&#xf060;" d="M503-19l-43-44c-19-18-48-18-67 0l-379 380c-19 18-19 48 0 66l379 380c19 18 48 18 67 0l43-44c19-18 18-48-1-67l-235-224h561c26 0 47-21 47-47v-62c0-26-21-47-47-47h-561l235-224c19-18 20-49 1-67z" horiz-adv-x="875" />

<glyph glyph-name="arrow-right" unicode="&#xf061;" d="M372 719l43 44c19 18 49 18 67 0l379-380c19-18 19-48 0-66l-379-380c-19-18-48-18-67 0l-43 44c-18 18-18 49 1 67l235 224h-561c-26 0-47 21-47 47v62c0 26 21 47 47 47h561l-235 224c-19 19-20 49-1 67z" horiz-adv-x="875" />

<glyph glyph-name="share" unicode="&#xf064;" d="M984 479l-344 297c-30 26-77 5-77-35v-157c-314-3-563-66-563-363 0-120 77-239 163-302 26-19 64 5 55 37-89 283 42 358 345 363v-172c0-41 47-62 77-36l344 297c21 19 21 53 0 71z" horiz-adv-x="1000" />

<glyph glyph-name="plus" unicode="&#xf067;" d="M813 444h-282v281c0 35-28 63-62 63h-63c-34 0-62-28-62-63v-281h-281c-35 0-63-28-63-63v-62c0-35 28-63 63-63h281v-281c0-35 28-63 62-63h63c34 0 62 28 62 63v281h282c34 0 62 28 62 63v62c0 35-28 63-62 63z" horiz-adv-x="875" />

<glyph glyph-name="minus" unicode="&#xf068;" d="M813 444h-750c-35 0-63-28-63-63v-62c0-35 28-63 63-63h750c34 0 62 28 62 63v62c0 35-28 63-62 63z" horiz-adv-x="875" />

<glyph glyph-name="exclamation-circle" unicode="&#xf06a;" d="M984 350c0-268-216-484-484-484s-484 216-484 484c0 267 217 484 484 484s484-217 484-484z m-484-98c-50 0-90-40-90-89s40-90 90-90 90 40 90 90-40 89-90 89z m-85 323l14-265c1-13 11-22 24-22h94c13 0 23 9 24 22l14 265c1 14-10 25-23 25h-124c-13 0-24-11-23-25z" horiz-adv-x="1000" />

<glyph glyph-name="exclamation-triangle" unicode="&#xf071;" d="M1112-9c36-63-9-141-81-141h-937c-72 0-117 78-81 141l468 812c36 63 127 63 163 0l468-812z m-549 168c-50 0-90-41-90-90s40-90 90-90 89 40 89 90-40 90-89 90z m-86 323l15-266c0-12 11-22 23-22h95c12 0 23 10 23 22l15 266c1 13-10 24-24 24h-123c-14 0-24-11-24-24z" horiz-adv-x="1125" />

<glyph glyph-name="comment" unicode="&#xf075;" d="M500 788c-276 0-500-182-500-407 0-97 42-185 111-255-24-98-106-186-107-187-4-5-5-11-3-17s8-10 15-10c129 0 226 63 274 101 64-24 135-38 210-38 276 0 500 182 500 406s-224 407-500 407z" horiz-adv-x="1000" />

<glyph glyph-name="chevron-up" unicode="&#xf077;" d="M471 595l379-379c19-19 19-48 0-67l-44-44c-18-18-48-18-66 0l-302 301-303-301c-18-18-48-18-66 0l-44 44c-18 19-18 48 0 67l379 379c19 18 48 18 67 0z" horiz-adv-x="875" />

<glyph glyph-name="chevron-down" unicode="&#xf078;" d="M404 105l-379 380c-18 18-18 48 0 66l44 44c18 18 48 18 66 0l303-301 302 301c18 18 48 18 66 0l44-44c19-18 19-48 0-66l-379-380c-19-18-48-18-67 0z" horiz-adv-x="875" />

<glyph glyph-name="shopping-cart" unicode="&#xf07a;" d="M1032 262l92 406c7 29-16 57-46 57h-767l-18 88c-4 21-24 37-46 37h-200c-26 0-47-21-47-47v-31c0-26 21-47 47-47h136l138-671c-33-19-55-54-55-95 0-60 49-109 109-109s109 49 109 109c0 31-12 59-32 79h409c-20-20-33-48-33-79 0-60 49-109 110-109s109 49 109 109c0 44-25 81-62 99l11 47c7 30-16 58-46 58h-524l-13 62h573c22 0 41 15 46 37z" horiz-adv-x="1125" />

<glyph glyph-name="folder-open" unicode="&#xf07c;" d="M1119 280l-142-243a125 125 0 0 0-108-62h-781c-36 0-59 39-41 71l142 242a125 125 0 0 0 108 62h781c36 0 59-39 41-70z m-822 133h641v93c0 52-42 94-94 94h-313l-125 125h-312c-52 0-94-42-94-94v-543l135 232c33 57 95 93 162 93z" horiz-adv-x="1125" />

<glyph glyph-name="camera-retro" unicode="&#xf083;" d="M94 788c-52 0-94-42-94-94v-688c0-52 42-94 94-94h812c52 0 94 42 94 94v688c0 52-42 94-94 94h-812z m0-63h207c6 0 12-5 12-12v-39c0-6-6-11-12-11h-227c-6 0-11 5-11 11v20c0 17 14 31 31 31z m832-187h-852c-6 0-11 5-11 11v71c0 6 5 11 11 11h270l59 89c2 3 6 5 10 5h493c17 0 32-14 32-31v-145c0-6-6-11-12-11z m-426-516c-129 0-234 105-234 234s105 235 234 235 234-105 234-235-105-234-234-234z m0 406c-95 0-172-77-172-172s77-172 172-172 172 78 172 172-77 172-172 172z m-94-203c-17 0-31 14-31 31 0 69 56 125 125 125 17 0 31-14 31-31s-14-31-31-31c-34 0-62-28-62-63 0-17-15-31-32-31z" horiz-adv-x="1000" />

<glyph glyph-name="cogs" unicode="&#xf085;" d="M1000 477l-16-28c-6-10-18-15-29-10-23 8-44 20-63 36-9 7-11 20-5 31l16 27c-14 16-24 34-31 54h-33c-11 0-22 8-24 20-3 24-4 48 0 73 2 11 13 20 24 20h33c7 20 17 38 31 53l-16 28c-6 10-4 24 5 31 19 15 40 28 63 36 11 4 23 0 29-10l16-28c21 4 42 4 62 0l16 28c6 10 19 14 30 10 23-8 44-21 62-36 9-7 12-21 6-31l-16-28c13-15 24-33 31-53h32c12 0 22-9 24-20 4-24 4-48 0-73-2-11-12-20-24-20h-32c-7-20-18-38-31-54l16-27c6-11 4-24-6-31-18-16-39-28-62-36-11-5-24 0-30 10l-16 28c-20-4-41-4-62 0z m-20 115c75-58 161 28 103 103-75 58-161-28-103-103z m-225-301l65-33c20-11 29-35 21-56-18-48-52-91-83-129-15-17-40-22-60-10l-56 33c-32-27-68-48-108-62v-66c0-23-16-42-38-46-48-8-98-9-148 0-23 4-39 23-39 46v66c-40 14-76 35-108 62l-56-33c-20-11-45-7-60 10-31 38-65 82-82 129-8 21 1 45 20 56l66 33c-8 41-8 83 0 124l-66 33c-19 11-28 35-20 57 17 47 51 90 82 128 15 18 40 22 60 11l56-33c32 27 68 48 108 62v66c0 22 16 42 38 45 48 9 99 9 148 1 23-4 39-24 39-46v-66c40-14 76-35 108-62l56 33c20 11 45 7 60-11 31-37 65-81 82-128 8-21 0-45-20-57l-65-33c7-41 7-83 0-124z m-230-41c115 150-56 322-207 206-115-150 56-322 207-206z m475-357l-16-28c-6-10-18-14-29-10-23 8-44 21-63 36-9 7-11 20-5 31l16 28c-14 15-24 33-31 53h-33c-11 0-22 9-24 20-3 24-4 48 0 73 2 11 13 20 24 20h33c7 20 17 38 31 54l-16 28c-6 10-4 23 5 30 19 16 40 28 63 37 11 4 23-1 29-11l16-28c21 4 42 4 62 0l16 28c6 10 19 15 30 11 23-9 44-21 62-37 9-7 12-20 6-30l-16-28c13-16 24-34 31-54h32c12 0 22-8 24-20 4-23 4-48 0-73-2-11-12-20-24-20h-32c-7-20-18-38-31-53l16-28c6-11 4-24-6-31-18-15-39-28-62-36-11-4-24 0-30 10l-16 28c-20-4-41-4-62 0z m-20 115c75-58 161 28 103 103-75 58-161-28-103-103z" horiz-adv-x="1250" />

<glyph glyph-name="comments" unicode="&#xf086;" d="M813 475c0 173-182 313-407 313s-406-140-406-313c0-67 28-129 74-180-26-59-69-105-70-106-4-5-5-11-3-17s8-9 15-9c71 0 130 24 173 48 63-30 137-48 217-48 225 0 407 139 407 312z m238-430c47 51 74 113 74 180 0 131-104 243-252 289 1-13 2-26 2-39 0-207-210-375-469-375-21 0-41 2-62 4 62-113 206-192 375-192 80 0 154 18 217 49 43-25 102-49 173-49 7 0 12 4 15 10 2 5 1 12-3 17-1 0-44 47-70 106z" horiz-adv-x="1125" />

<glyph glyph-name="trophy" unicode="&#xf091;" d="M1078 725h-203v78c0 26-21 47-47 47h-531c-26 0-47-21-47-47v-78h-203c-26 0-47-21-47-47v-109c0-70 44-142 121-197 61-44 136-72 215-81 61-102 133-144 133-144v-141h-94c-69 0-125-40-125-109v-24c0-13 11-23 23-23h579c13 0 23 10 23 23v24c0 69-56 109-125 109h-94v141s72 42 133 144c79 9 154 37 215 81 77 55 121 127 121 197v109c0 26-21 47-47 47z m-884-252c-48 35-69 73-69 96v31h125c2-64 12-119 25-168-29 10-57 24-81 41z m806 96c0-32-35-71-69-96-24-17-52-31-82-41 14 49 24 104 25 168h126v-31z" horiz-adv-x="1125" />

<glyph glyph-name="phone" unicode="&#xf095;" d="M964 802l-203 47c-22 5-45-7-54-27l-94-219c-8-19-3-42 14-55l118-97c-70-149-193-274-346-346l-97 119c-13 16-36 21-55 13l-218-94c-21-9-33-31-28-53l47-204c5-21 24-36 46-36 500 0 906 405 906 906 0 22-15 41-36 46z" horiz-adv-x="1000" />

<glyph glyph-name="rss" unicode="&#xf09e;" d="M250 38c0-70-56-126-125-126s-125 56-125 126 56 125 125 125 125-56 125-125z m343-93c-16 302-258 544-560 561-18 1-33-14-33-31v-94c0-17 13-31 29-32 219-14 394-188 408-407 1-17 15-30 31-30h94c18 0 32 15 31 33z m282 0c-16 456-384 826-843 843-17 0-32-14-32-32v-94c0-16 13-30 30-31 374-15 673-315 689-688 0-17 14-31 31-31h94c17 0 32 15 31 33z" horiz-adv-x="875" />

<glyph glyph-name="globe" unicode="&#xf0ac;" d="M657 538c-28 174-95 296-173 296s-144-122-172-296h345z m-360-188c0-43 2-85 6-125h362c4 40 7 82 7 125s-3 85-7 125h-362c-4-40-6-82-6-125z m634 188c-56 132-169 235-308 276 47-66 80-165 97-276h211z m-585 276c-139-41-253-144-308-276h211c17 111 49 210 97 276z m606-339h-224c4-41 6-83 6-125s-2-84-6-125h224c11 40 17 82 17 125s-6 85-17 125z m-718-125c0 42 3 84 7 125h-224c-11-40-17-82-17-125s6-85 17-125h224c-4 41-7 83-7 125z m78-187c28-175 95-297 172-297s145 122 173 297h-345z m311-277c139 41 252 144 308 277h-211c-17-112-50-211-97-277z m-585 277c56-133 169-236 308-277-47 66-80 165-97 277h-211z" horiz-adv-x="969" />

<glyph glyph-name="filter" unicode="&#xf0b0;" d="M953 850h-906c-42 0-63-50-33-80l361-361v-403c0-15 8-29 20-38l156-110c31-21 74 1 74 39v512l361 361c30 29 9 80-33 80z" horiz-adv-x="1000" />

<glyph glyph-name="users" unicode="&#xf0c0;" d="M188 413c68 0 125 56 125 125s-57 125-125 125-125-57-125-125 56-125 125-125z m875 0c68 0 125 56 125 125s-57 125-125 125-125-57-125-125 56-125 125-125z m62-63h-125c-34 0-65-14-88-36 79-43 135-121 147-214h129c34 0 62 28 62 63v62c0 69-56 125-125 125z m-500 0c121 0 219 98 219 219s-98 219-219 219-219-98-219-219 98-219 219-219z m150-62h-16c-41-20-86-32-134-32s-93 12-134 32h-16c-124 0-225-101-225-225v-57c0-52 42-94 94-94h562c52 0 94 42 94 94v57c0 124-101 225-225 225z m-437 26c-23 22-54 36-88 36h-125c-69 0-125-56-125-125v-62c0-35 28-63 63-63h128c13 93 68 171 147 214z" horiz-adv-x="1250" />

<glyph glyph-name="link" unicode="&#xf0c1;" d="M638 488c117-117 115-304 1-419-1 0-1-1-1-1l-131-131c-116-116-304-116-420 0-116 116-116 304 0 420l72 72c20 19 53 7 54-21 1-34 7-69 19-103 3-11 1-23-8-32l-25-26c-55-54-57-143-3-199 55-56 145-56 200-1l131 132c56 55 55 144 0 198-7 8-14 13-20 17a31 31 0 0 0-13 25c-1 20 6 42 23 58l41 41c10 11 27 12 40 4a298 298 0 0 0 40-34z m275 275c-116 116-304 116-420 0l-131-131c0 0 0-1-1-1-114-115-116-302 1-419a298 298 0 0 1 40-33c13-9 30-8 40 3l42 41c16 16 23 38 22 58a31 31 0 0 1-13 25c-6 4-13 9-20 17-55 54-55 143 0 199l131 131c55 55 145 55 200-1 54-56 52-145-3-199l-25-26c-9-8-11-21-7-32 11-34 17-69 18-103 1-28 35-40 54-21l72 72c116 116 116 304 0 420z" horiz-adv-x="1000" />

<glyph glyph-name="bars" unicode="&#xf0c9;" d="M31 592h813c17 0 31 14 31 31v79c0 17-14 31-31 31h-813c-17 0-31-14-31-31v-79c0-17 14-31 31-31z m0-312h813c17 0 31 14 31 31v78c0 17-14 31-31 31h-813c-17 0-31-14-31-31v-78c0-17 14-31 31-31z m0-313h813c17 0 31 14 31 31v79c0 17-14 31-31 31h-813c-17 0-31-14-31-31v-79c0-17 14-31 31-31z" horiz-adv-x="875" />

<glyph glyph-name="list-ul" unicode="&#xf0ca;" d="M94 756a94 94 0 1 1 94-93 94 94 0 0 1-94 93z m0-312a94 94 0 1 1 94-94 94 94 0 0 1-94 94z m0-313a94 94 0 1 1 94-93 94 94 0 0 1-94 93z m875-31h-625a31 31 0 0 1-31-31v-63a31 31 0 0 1 31-31h625a31 31 0 0 1 31 31v63a31 31 0 0 1-31 31z m0 625h-625a31 31 0 0 1-31-31v-63a31 31 0 0 1 31-31h625a31 31 0 0 1 31 31v63a31 31 0 0 1-31 31z m0-312h-625a31 31 0 0 1-31-32v-62a31 31 0 0 1 31-31h625a31 31 0 0 1 31 31v62a31 31 0 0 1-31 32z" horiz-adv-x="1000" />

<glyph glyph-name="truck" unicode="&#xf0d1;" d="M1219 163h-31v211c0 24-10 48-28 66l-195 195c-18 18-42 28-66 28h-86v93c0 52-42 94-94 94h-625c-52 0-94-42-94-94v-625c0-51 42-93 94-93h31c0-104 84-188 188-188s187 84 187 188h250c0-104 84-188 188-188s187 84 187 188h94c17 0 31 14 31 31v62c0 17-14 32-31 32z m-906-219c-52 0-94 42-94 94s42 93 94 93 93-42 93-93-42-94-93-94z m625 0c-52 0-94 42-94 94s42 93 94 93 93-42 93-93-42-94-93-94z m156 406h-281v219h86l195-195v-24z" horiz-adv-x="1250" />

<glyph glyph-name="caret-down" unicode="&#xf0d7;" d="M61 475h503c34 0 52-42 27-67l-251-251c-15-15-40-15-55 0l-251 251c-25 25-8 67 27 67z" horiz-adv-x="625" />

<glyph glyph-name="caret-up" unicode="&#xf0d8;" d="M564 163h-503c-35 0-52 42-27 66l251 252c15 15 40 15 55 0l251-252c25-24 8-66-27-66z" horiz-adv-x="625" />

<glyph glyph-name="caret-left" unicode="&#xf0d9;" d="M375 601v-502c0-35-42-52-67-28l-251 251c-15 16-15 40 0 56l251 251c25 25 67 7 67-28z" horiz-adv-x="375" />

<glyph glyph-name="caret-right" unicode="&#xf0da;" d="M0 99v502c0 35 42 53 67 28l251-251c15-16 15-40 0-56l-251-251c-25-24-67-7-67 28z" horiz-adv-x="375" />

<glyph glyph-name="envelope" unicode="&#xf0e0;" d="M981 477c8 6 19 1 19-9v-399c0-52-42-94-94-94h-812c-52 0-94 42-94 94v399c0 10 11 15 19 9 44-34 102-77 301-222 41-30 111-93 180-93 70 0 141 64 180 93 200 145 257 188 301 222z m-481-252c45-1 111 57 143 81 260 188 279 204 339 251 11 9 18 23 18 37v37c0 52-42 94-94 94h-812c-52 0-94-42-94-94v-37c0-14 7-28 18-37 60-46 80-63 339-251 33-24 98-82 143-81z" horiz-adv-x="1000" />

<glyph glyph-name="bolt" unicode="&#xf0e7;" d="M578 538h-225l83 253c8 30-15 59-45 59h-282c-23 0-43-17-46-41l-63-468c-3-28 19-53 47-53h232l-90-380c-7-30 15-58 45-58 17 0 32 9 41 23l344 594c18 31-5 71-41 71z" horiz-adv-x="625" />

<glyph glyph-name="coffee" unicode="&#xf0f4;" d="M375 100h375c104 0 188 84 188 188h62c138 0 250 112 250 250s-112 250-250 250h-766c-26 0-46-21-46-47v-453c0-104 84-188 187-188z m625 563c69 0 125-57 125-125s-56-125-125-125h-62v250h62z m93-751h-999c-93 0-119 126-70 126h1139c49 0 23-126-70-126z" horiz-adv-x="1250" />

<glyph glyph-name="plus-square" unicode="&#xf0fe;" d="M781 788h-687c-52 0-94-42-94-94v-688c0-52 42-94 94-94h687c52 0 94 42 94 94v688c0 52-42 94-94 94z m-62-493c0-13-11-23-24-23h-179v-180c0-13-11-23-24-23h-109c-13 0-24 10-24 23v180h-179c-13 0-24 10-24 23v110c0 13 11 23 24 23h179v180c0 13 11 23 24 23h109c13 0 24-10 24-23v-180h179c13 0 24-10 24-23v-110z" horiz-adv-x="875" />

<glyph glyph-name="angle-double-left" unicode="&#xf100;" d="M437 383l266 266c18 18 48 18 66 0l44-44c18-19 18-48 0-66l-188-189 188-188c18-19 18-48 0-66l-44-45c-18-18-48-18-66 0l-266 266c-18 18-18 48 0 66z m-375-66l266-266c18-18 48-18 66 0l44 44c18 19 18 48 0 67l-188 188 188 188c18 19 18 48 0 67l-44 44c-18 18-48 18-66 0l-266-266c-18-18-18-48 0-66z" horiz-adv-x="875" />

<glyph glyph-name="angle-double-right" unicode="&#xf101;" d="M438 317l-265-266c-19-18-49-18-67 0l-44 44c-18 19-18 48 0 67l188 188-188 188c-18 18-18 48 0 66l44 45c18 18 48 18 66 0l266-266c18-18 18-48 0-66z m375 66l-265 266c-19 18-49 18-67 0l-44-44c-18-19-18-48 0-66l188-189-188-188c-18-18-18-48 0-66l44-44c19-19 48-19 67 0l265 265c18 18 18 48 0 66z" horiz-adv-x="875" />

<glyph glyph-name="angle-left" unicode="&#xf104;" d="M62 383l266 266c18 18 48 18 66 0l44-44c18-19 18-48 0-66l-188-189 188-188c18-19 18-48 0-66l-44-45c-18-18-48-18-66 0l-266 266c-18 18-18 48 0 66z" horiz-adv-x="500" />

<glyph glyph-name="angle-right" unicode="&#xf105;" d="M438 317l-265-266c-19-18-49-18-67 0l-44 44c-18 19-18 48 0 67l188 188-188 188c-18 18-18 48 0 66l44 45c18 18 48 18 66 0l266-266c18-18 18-48 0-66z" horiz-adv-x="500" />

<glyph glyph-name="angle-up" unicode="&#xf106;" d="M346 538l265-265c19-19 19-49 0-67l-44-44c-18-18-48-18-66 0l-188 188-189-188c-18-18-48-18-66 0l-44 44c-19 18-19 48 0 66l265 266c19 18 48 18 67 0z" horiz-adv-x="625" />

<glyph glyph-name="angle-down" unicode="&#xf107;" d="M279 162l-265 266c-19 18-19 48 0 66l44 44c18 18 48 18 66 0l188-188 189 188c18 18 48 18 66 0l44-44c18-19 18-48 0-66l-266-266c-18-18-47-18-66 0z" horiz-adv-x="625" />

<glyph glyph-name="desktop" unicode="&#xf108;" d="M1031 850h-937c-52 0-94-42-94-94v-625c0-51 42-93 94-93h375l-31-94h-141c-26 0-47-21-47-47s21-47 47-47h531c26 0 47 21 47 47s-21 47-47 47h-140l-32 94h375c52 0 94 42 94 93v625c0 52-42 94-94 94z m-31-687h-875v562h875v-562z" horiz-adv-x="1125" />

<glyph glyph-name="quote-left" unicode="&#xf10d;" d="M906 350h-156v125c0 69 56 125 125 125h16c26 0 47 21 47 47v94c0 26-21 47-47 47h-16c-173 0-312-140-312-313v-469c0-52 42-94 93-94h250c52 0 94 42 94 94v250c0 52-42 94-94 94z m-562 0h-156v125c0 69 56 125 125 125h15c26 0 47 21 47 47v94c0 26-21 47-47 47h-15c-173 0-313-140-313-313v-469c0-52 42-94 94-94h250c52 0 94 42 94 94v250c0 52-42 94-94 94z" horiz-adv-x="1000" />

<glyph glyph-name="spinner" unicode="&#xf110;" d="M594 756c0-51-42-93-94-93s-94 42-94 93 42 94 94 94 94-42 94-94z m-94-718c-52 0-94-43-94-94s42-94 94-94 94 42 94 94-42 94-94 94z m406 406c-51 0-93-42-93-94s42-94 93-94 94 42 94 94-42 94-94 94z m-718-94c0 52-42 94-94 94s-94-42-94-94 42-94 94-94 94 42 94 94z m25-193c-52 0-94-42-94-94s42-94 94-94 94 42 94 94c0 52-42 94-94 94z m574 0c-51 0-93-42-93-94s42-94 93-94 94 42 94 94c0 52-42 94-94 94z m-574 574c-52 0-94-42-94-94s42-93 94-93 94 42 94 93-42 94-94 94z" horiz-adv-x="1000" />

<glyph glyph-name="circle" unicode="&#xf111;" d="M500 834c-268 0-484-216-484-484s216-484 484-484 484 216 484 484-216 484-484 484z" horiz-adv-x="1000" />

<glyph glyph-name="code" unicode="&#xf121;" d="M545-149l-119 34c-13 4-20 17-16 30l266 918c4 13 17 20 29 16l119-34c13-4 20-17 16-30l-266-918c-4-13-17-20-29-16z m-223 219l85 91c9 9 8 25-1 33l-177 156 177 156c9 9 10 24 1 33l-85 91c-9 9-24 10-33 1l-282-264c-10-9-10-25 0-34l282-264c9-9 24-8 33 1z m639-1l282 264c10 9 10 25 0 34l-282 264c-9 9-24 9-33-1l-85-90c-9-10-8-25 2-34l177-156-177-156c-10-8-11-24-2-33l85-91c9-9 24-10 33-1z" horiz-adv-x="1250" />

<glyph glyph-name="location-arrow" unicode="&#xf124;" d="M868 843l-812-375c-94-43-62-181 38-181h343v-343c0-100 138-132 181-38l375 812c31 75-50 156-125 125z" horiz-adv-x="1000" />

<glyph glyph-name="exclamation" unicode="&#xf12a;" d="M344 6c0-86-70-156-156-156s-157 70-157 156 70 157 157 157 156-71 156-157z m-295 795l27-531c1-25 22-45 47-45h129c25 0 46 20 47 45l27 531c1 27-20 49-47 49h-183c-27 0-48-22-47-49z" horiz-adv-x="375" />

<glyph glyph-name="puzzle-piece" unicode="&#xf12e;" d="M1015 286c-82 0-117-61-161-61-117 0-10 344-10 344s-384-156-384 6c0 70 71 91 71 168 0 70-55 107-120 107-67 0-129-37-129-110 0-81 62-116 62-160 0-136-344-56-344-56v-651s349-80 349 56c0 44-78 79-78 160 0 73 57 110 124 110 66 0 121-38 121-107 0-78-71-98-71-168 0-119 253-51 354-51 0 0-68 235 50 235 70 0 91-70 169-70 69 0 107 54 107 120 0 67-37 128-110 128z" horiz-adv-x="1125" />

<glyph glyph-name="rocket" unicode="&#xf135;" d="M986 813a31 31 0 0 1-23 24c-63 13-112 13-161 13-202 0-323-108-413-250h-204a94 94 0 0 1-83-52l-97-193a47 47 0 0 1 42-67h203l-44-44a63 63 0 0 1 0-89l99-99a63 63 0 0 1 89 0l44 44v-203a47 47 0 0 1 67-42l193 96a94 94 0 0 1 52 84v204c142 91 250 212 250 412 0 50 0 99-14 162z m-236-291a78 78 0 1 0 78 78 78 78 0 0 0-78-78z" horiz-adv-x="1000" />

<glyph glyph-name="bullseye" unicode="&#xf140;" d="M484 834c-267 0-484-216-484-484s217-484 484-484 485 217 485 484-217 484-485 484z m0-843c-198 0-359 160-359 359 0 199 161 359 359 359 199 0 360-160 360-359 0-199-161-359-360-359z m0 609c-138 0-250-112-250-250s112-250 250-250 250 112 250 250-112 250-250 250z m0-375c-69 0-125 56-125 125s56 125 125 125 125-56 125-125-56-125-125-125z" horiz-adv-x="969" />

<glyph glyph-name="check-square" unicode="&#xf14a;" d="M781-88h-687c-52 0-94 42-94 94v688c0 52 42 94 94 94h687c52 0 94-42 94-94v-688c0-52-42-94-94-94z m-399 192l359 359c12 13 12 32 0 45l-44 44c-12 12-32 12-44 0l-294-293-136 137c-13 12-32 12-45 0l-44-45c-12-12-12-32 0-44l203-203c13-12 32-12 45 0z" horiz-adv-x="875" />

<glyph glyph-name="dollar-sign" unicode="&#xf155;" d="M409 394l-211 62c-25 7-42 30-42 55 0 32 26 58 58 58h129c24 0 48-7 67-21 12-8 28-6 38 4l68 67c14 13 12 36-3 47-48 38-108 59-169 59v94c0 17-14 31-31 31h-63c-17 0-31-14-31-31v-94h-5c-124 0-225-107-213-234 8-90 77-163 164-188l200-59c24-7 41-30 41-55 0-32-25-58-57-58h-130c-24 0-47 8-67 21-12 8-28 6-38-4l-68-67c-14-13-12-35 4-47 48-38 107-59 169-59v-94c0-17 14-31 31-31h63c17 0 31 14 31 31v94c91 2 176 56 206 142 42 121-28 244-141 277z" horiz-adv-x="563" />

<glyph glyph-name="file" unicode="&#xf15b;" d="M438 584v266h-391c-26 0-47-21-47-47v-906c0-26 21-47 47-47h656c26 0 47 21 47 47v641h-266c-25 0-46 21-46 46z m312 28v-12h-250v250h12c12 0 24-5 33-14l191-191c9-9 14-21 14-33z" horiz-adv-x="750" />

<glyph glyph-name="file-alt" unicode="&#xf15c;" d="M438 584v266h-391c-26 0-47-21-47-47v-906c0-26 21-47 47-47h656c26 0 47 21 47 47v641h-266c-25 0-46 21-46 46z m125-461c0-12-11-23-24-23h-328c-13 0-23 11-23 23v16c0 13 10 24 23 24h328c13 0 24-11 24-24v-16z m0 125c0-12-11-23-24-23h-328c-13 0-23 11-23 23v16c0 13 10 24 23 24h328c13 0 24-11 24-24v-16z m0 141v-16c0-12-11-23-24-23h-328c-13 0-23 11-23 23v16c0 13 10 24 23 24h328c13 0 24-11 24-24z m187 223v-12h-250v250h12c12 0 24-5 33-14l191-191c9-9 14-21 14-33z" horiz-adv-x="750" />

<glyph glyph-name="thumbs-up" unicode="&#xf164;" d="M203 413h-156c-26 0-47-21-47-47v-469c0-26 21-47 47-47h156c26 0 47 21 47 47v469c0 26-21 47-47 47z m-78-485c-26 0-47 21-47 47s21 47 47 47 47-21 47-47-21-47-47-47z m625 763c0-83-51-129-65-185h199c65 0 116-54 116-113 0-35-15-73-38-96l0 0c19-46 16-110-18-156 17-50 0-112-32-146 8-34 4-63-12-87-40-57-139-58-223-58l-5 0c-94 0-172 34-234 62-31 14-72 31-102 32-13 0-23 10-23 23v418c0 6 2 12 6 16 78 77 111 158 175 221 28 29 39 73 49 115 9 36 27 113 66 113 47 0 141-16 141-159z" horiz-adv-x="1000" />

<glyph glyph-name="paper-plane" unicode="&#xf1d8;" d="M930 844l-906-522c-35-21-30-70 5-85l207-87 562 495c10 9 25-5 16-17l-470-573v-157c0-46 55-64 83-31l124 151 243-102c28-12 60 6 65 36l140 843c7 40-35 68-69 49z" horiz-adv-x="1000" />

<glyph glyph-name="sliders-h" unicode="&#xf1de;" d="M969 100h-656v31c0 17-15 32-32 32h-62c-17 0-31-15-31-32v-31h-157c-17 0-31-14-31-31v-63c0-17 14-31 31-31h157v-31c0-17 14-32 31-32h62c17 0 32 15 32 32v31h656c17 0 31 14 31 31v63c0 17-14 31-31 31z m0 313h-156v31c0 17-15 31-32 31h-62c-17 0-31-14-31-31v-31h-657c-17 0-31-15-31-32v-62c0-17 14-31 31-31h657v-32c0-17 14-31 31-31h62c17 0 32 14 32 31v32h156c17 0 31 14 31 31v62c0 17-14 32-31 32z m0 312h-406v31c0 17-15 32-32 32h-62c-17 0-31-15-31-32v-31h-407c-17 0-31-14-31-31v-63c0-17 14-31 31-31h407v-31c0-17 14-31 31-31h62c17 0 32 14 32 31v31h406c17 0 31 14 31 31v63c0 17-14 31-31 31z" horiz-adv-x="1000" />

<glyph glyph-name="share-alt" unicode="&#xf1e0;" d="M688 225c-45 0-85-15-117-41l-200 125a189 189 0 0 1 0 82l200 125c32-26 72-41 117-41 103 0 187 84 187 188s-84 187-187 187-188-84-188-187c0-14 2-28 4-41l-200-125c-32 25-72 41-116 41-104 0-188-84-188-188s84-187 188-187c44 0 84 15 116 40l200-125a188 188 0 0 1-4-40c0-104 84-188 188-188s187 84 187 188-84 187-187 187z" horiz-adv-x="875" />

<glyph glyph-name="paint-brush" unicode="&#xf1fc;" d="M326 246c-78-5-149-35-190-141-4-12-15-20-28-20-22 0-89 54-108 67 0-161 74-302 250-302 148 0 250 85 250 235 0 6-1 12-2 18l-172 143z m568 604c-29 0-57-13-78-32-399-357-441-365-441-470 0-27 6-52 17-76l125-104c14-3 28-5 43-5 122 0 192 88 413 500 14 28 27 59 27 90 0 57-51 97-106 97z" horiz-adv-x="1000" />

<glyph glyph-name="user-plus" unicode="&#xf234;" d="M1219 444h-125v125c0 17-14 31-31 31h-63c-17 0-31-14-31-31v-125h-125c-17 0-31-14-31-31v-63c0-17 14-31 31-31h125v-125c0-17 14-31 31-31h63c17 0 31 14 31 31v125h125c17 0 31 14 31 31v63c0 17-14 31-31 31z m-781-94c138 0 250 112 250 250s-112 250-250 250-250-112-250-250 111-250 250-250z m175-62h-33c-43-20-92-32-142-32s-99 12-143 32h-32c-145 0-263-118-263-263v-81c0-52 42-94 94-94h687c52 0 94 42 94 94v81c0 145-118 263-262 263z" horiz-adv-x="1250" />

<glyph glyph-name="sync-alt" unicode="&#xf2f1;" d="M724 590c-61 57-140 88-224 88-152 0-282-104-318-248-3-10-12-17-23-17h-112c-15 0-26 13-23 27 42 225 239 394 476 394 130 0 248-51 335-134l69 70c30 30 80 9 80-33v-262c0-26-21-47-46-47h-262c-42 0-63 51-33 80l81 82z m-661-318h261c42 0 63-51 34-80l-82-82c61-57 140-88 224-88 152 0 282 104 318 248 3 10 12 18 23 18h112c15 0 26-14 23-28-42-225-239-394-476-394-130 0-248 51-335 134l-69-70c-30-30-80-9-80 33v262c0 26 21 47 47 47z" horiz-adv-x="1000" />

<glyph glyph-name="sign-in-alt" unicode="&#xf2f6;" d="M813-25h-165c-12 0-23 10-23 23v79c0 13 11 23 23 23h165c34 0 62 28 62 63v375c0 34-28 62-62 62h-165c-12 0-23 11-23 23v79c0 13 11 23 23 23h165c103 0 187-84 187-187v-375c0-104-84-188-187-188z m-92 393l-328 328c-30 29-80 9-80-33v-188h-266c-26 0-47-21-47-47v-187c0-26 21-47 47-47h266v-188c0-42 50-62 80-33l328 328c18 19 18 48 0 67z" horiz-adv-x="1000" />

<glyph glyph-name="pencil-alt" unicode="&#xf303;" d="M973 573l-91-91c-9-9-24-9-33 0l-217 217c-9 9-9 24 0 33l91 91c36 36 95 36 132 0l118-118c36-36 36-96 0-132z m-418 82l-513-513-41-237c-6-32 22-60 54-54l237 41 513 513c10 9 10 24 0 33l-216 217c-10 9-25 9-34 0z m-313-469c-10 11-10 28 0 39l301 301c11 10 28 10 39 0s11-28 0-39l-301-301c-11-11-28-11-39 0z m-70-164h94v-71l-126-22-61 61 22 126h71v-94z" horiz-adv-x="1000" />

<glyph glyph-name="long-arrow-alt-down" unicode="&#xf309;" d="M328 174v590c0 13-10 24-23 24h-110c-13 0-23-11-23-24v-590h-90c-42 0-63-50-33-80l168-168c18-18 48-18 66 0l168 168c30 30 9 80-33 80h-90z" horiz-adv-x="500" />

<glyph glyph-name="long-arrow-alt-left" unicode="&#xf30a;" d="M262 272h590c13 0 23 10 23 23v110c0 13-10 23-23 23h-590v90c0 42-51 63-80 33l-168-168c-19-18-19-48 0-66l168-168c29-30 80-9 80 33v90z" horiz-adv-x="875" />

<glyph glyph-name="long-arrow-alt-right" unicode="&#xf30b;" d="M613 428h-590c-12 0-23-10-23-23v-110c0-13 11-23 23-23h590v-90c0-42 51-63 80-33l168 168c19 18 19 48 0 66l-168 168c-29 30-80 9-80-33v-90z" horiz-adv-x="875" />

<glyph glyph-name="external-link-alt" unicode="&#xf35d;" d="M1125 803v-250c0-42-51-62-80-33l-70 70-475-476c-19-18-48-18-67 0l-44 44c-18 19-18 48 0 67l476 475-70 70c-29 29-9 80 33 80h250c26 0 47-21 47-47z m-330-482l-31-31a47 47 0 0 1-14-33v-282h-625v625h516a47 47 0 0 1 33 14l31 31c30 30 9 80-33 80h-578c-52 0-94-42-94-94v-687c0-52 42-94 94-94h687c52 0 94 42 94 94v344c0 42-50 63-80 33z" horiz-adv-x="1125" />

<glyph glyph-name="cloud-download-alt" unicode="&#xf381;" d="M1050 407c8 21 13 44 13 68 0 104-84 188-188 188-38 0-74-12-104-32-54 94-155 157-271 157-173 0-312-140-312-313 0-5 0-10 0-16-109-38-188-143-188-265 0-155 126-282 281-282h719c138 0 250 112 250 251 0 120-86 221-200 244z m-260-173l-205-206c-12-12-32-12-45 0l-205 206c-20 20-6 54 22 54h127v218c0 17 14 32 32 32h93c18 0 32-15 32-32v-218h127c28 0 42-34 22-54z" horiz-adv-x="1250" />

<glyph glyph-name="map-marker-alt" unicode="&#xf3c5;" d="M337-130c-284 412-337 454-337 605 0 207 168 375 375 375s375-168 375-375c0-151-53-193-336-605-19-27-59-27-77 0z m38 449c86 0 156 70 156 156s-70 156-156 156-156-70-156-156 70-156 156-156z" horiz-adv-x="750" />

<glyph glyph-name="mobile-alt" unicode="&#xf3cd;" d="M531 850h-437c-52 0-94-42-94-94v-812c0-52 42-94 94-94h437c52 0 94 42 94 94v812c0 52-42 94-94 94z m-218-938c-35 0-63 28-63 63s28 63 63 63 62-28 62-63-28-63-62-63z m218 211c0-12-10-23-23-23h-391c-13 0-23 11-23 23v610c0 13 10 23 23 23h391c13 0 23-10 23-23v-610z" horiz-adv-x="625" />

<glyph glyph-name="reply" unicode="&#xf3e5;" d="M16 479l344 297c30 26 78 5 78-35v-157c313-3 562-66 562-363 0-120-77-239-163-302-26-19-64 5-55 37 89 283-42 358-344 363v-172c0-41-48-62-78-36l-344 297c-21 19-21 53 0 71z" horiz-adv-x="1000" />

<glyph glyph-name="tablet-alt" unicode="&#xf3fa;" d="M781 850h-687c-52 0-94-42-94-94v-812c0-52 42-94 94-94h687c52 0 94 42 94 94v812c0 52-42 94-94 94z m-343-938c-35 0-63 28-63 63s28 63 63 63 62-28 62-63-28-63-62-63z m343 211c0-12-10-23-23-23h-641c-13 0-23 11-23 23v610c0 13 10 23 23 23h641c13 0 23-10 23-23v-610z" horiz-adv-x="875" />
</font>
</defs>
</svg>
