<?xml version="1.0" standalone="no"?>
<!DOCTYPE svg PUBLIC "-//W3C//DTD SVG 1.1//EN" "http://www.w3.org/Graphics/SVG/1.1/DTD/svg11.dtd">
<svg xmlns="http://www.w3.org/2000/svg">
<metadata>Copyright (C) 2021 by original authors @ fontello.com</metadata>
<defs>
<font id="fa-brands-400" horiz-adv-x="1000" >
<font-face font-family="fa-brands-400" font-weight="400" font-stretch="normal" units-per-em="1000" ascent="850" descent="-150" />
<missing-glyph horiz-adv-x="1000" />
<glyph glyph-name="twitter-square" unicode="&#xf081;" d="M781 771h-687c-52 0-94-42-94-94v-688c0-52 42-94 94-94h687c52 0 94 42 94 94v688c0 52-42 94-94 94z m-95-311c0-5 0-11 0-16 0-170-129-365-364-365-73 0-140 21-197 58 10-1 20-2 31-2 60 0 115 21 159 55-56 1-104 38-120 89 20-3 38-3 58 2-59 12-103 64-103 126v1c17-9 37-15 58-16-35 24-57 63-57 107 0 0 0 0 0 0v0c0 24 6 46 18 65 63-78 157-129 264-134-18 86 47 157 125 157 37 0 70-15 93-40 29 5 57 16 81 30-9-29-29-54-56-70 26 3 51 10 74 20-17-26-39-48-64-67z" horiz-adv-x="875" />

<glyph glyph-name="facebook-square" unicode="&#xf082;" d="M875 677v-688c0-52-42-94-94-94h-166v347h118l17 132h-135v84c0 38 10 64 65 64h70v118c-12 2-53 6-102 6-101 0-170-62-170-175v-98h-119v-132h119v-346h-384c-52 0-94 42-94 94v688c0 52 42 94 94 94h687c52 0 94-42 94-94z" horiz-adv-x="875" />

<glyph glyph-name="linkedin" unicode="&#xf08c;" d="M813 771h-751c-34 0-62-29-62-64v-748c0-35 28-64 62-64h751c34 0 62 29 62 64v748c0 35-28 64-62 64z m-548-750h-130v417h130v-417z m-65 474c-42 0-76 34-76 75s34 76 76 76c41 0 75-34 75-76 0-41-34-75-75-75z m551-474h-130v203c0 48-1 110-67 110-68 0-78-52-78-107v-206h-130v417h124v-57h2c18 33 60 67 123 67 131 0 156-86 156-199v-228z" horiz-adv-x="875" />

<glyph glyph-name="twitter" unicode="&#xf099;" d="M897 537c1-9 1-18 1-27 0-271-206-583-583-583-116 0-224 33-315 92 17-2 32-3 50-3 95 0 184 33 254 88-90 2-166 61-192 142 13-2 26-3 39-3 18 0 37 2 54 7-94 19-164 101-164 201v3c27-16 59-25 92-26-55 36-91 99-91 170 0 38 10 73 28 104 101-125 252-206 422-215-3 15-5 31-5 47 0 113 92 205 205 205 59 0 113-25 150-65 46 9 91 26 130 50-15-48-47-88-90-113 41 4 81 16 118 32-28-41-63-77-103-106z" horiz-adv-x="1000" />

<glyph glyph-name="pinterest" unicode="&#xf0d2;" d="M969 333c0-268-217-484-485-484-50 0-98 7-143 21 20 32 49 85 60 127 6 23 30 116 30 116 16-31 62-56 111-56 146 0 252 134 252 301 0 160-131 280-299 280-209 0-320-140-320-293 0-71 38-160 98-188 9-4 14-2 16 7 2 6 10 39 14 54 1 5 0 10-4 14-19 25-35 69-35 111 0 107 81 210 218 210 119 0 203-81 203-197 0-131-66-222-153-222-47 0-83 39-71 88 13 57 40 119 40 161 0 37-20 68-61 68-49 0-88-50-88-118 0-43 14-71 14-71s-48-203-56-241c-10-42-6-101-2-139-180 70-308 246-308 451 0 268 217 484 484 484s485-216 485-484z" horiz-adv-x="968.8" />

<glyph glyph-name="google-plus-square" unicode="&#xf0d4;" d="M781 771h-687c-52 0-94-42-94-94v-688c0-52 42-94 94-94h687c52 0 94 42 94 94v688c0 52-42 94-94 94z m-461-633c-108 0-195 87-195 195s87 195 195 195c53 0 97-19 131-51l-53-51c-14 14-39 30-77 30-67 0-121-55-121-123s54-124 121-124c77 0 106 56 110 85h-111v67h185c2-10 3-20 3-33 0-111-75-190-188-190z m430 160h-57v-57h-57v57h-56v57h56v56h57v-56h57v-57z" horiz-adv-x="875" />

<glyph glyph-name="google-plus-g" unicode="&#xf0d5;" d="M754 387c4-19 6-38 6-63 0-214-144-366-360-366-207 0-375 168-375 375s168 375 375 375c101 0 186-37 251-98l-102-98c-27 27-76 58-149 58-128 0-232-106-232-237s104-237 232-237c148 0 204 107 213 162h-213v129h354z m362-13v109h-109v-109h-109v-109h109v-109h109v109h109v109h-109z" horiz-adv-x="1250" />

<glyph glyph-name="linkedin-in" unicode="&#xf0e1;" d="M196-42h-181v584h181v-584z m-91 664c-58 0-105 48-105 106s47 105 105 105 105-47 105-105-47-106-105-106z m770-664h-181v284c0 68-1 155-94 155-95 0-109-74-109-150v-289h-181v584h174v-79h2c24 45 84 94 172 94 183 0 217-121 217-278v-321z" horiz-adv-x="875" />

<glyph glyph-name="youtube" unicode="&#xf167;" d="M1074 591c-13 46-49 82-95 95-83 22-416 22-416 22s-334 0-417-22c-46-13-82-49-94-95-23-84-23-259-23-259s0-174 23-258c12-46 48-81 94-94 83-22 417-22 417-22s333 0 416 22c46 13 82 48 95 94 22 84 22 258 22 258s0 175-22 259z m-621-417v317l279-159-279-158z" horiz-adv-x="1125" />

<glyph glyph-name="xing" unicode="&#xf168;" d="M318 423c-4-7-49-87-137-241-10-17-21-25-35-25h-127c-15 0-24 15-16 28l134 237c1 0 1 1 0 1l-85 148c-9 15 0 27 16 27h127c15 0 26-8 36-24l87-151z m429 320l-281-494v-1l179-325c8-14 0-28-17-28h-127c-15 0-27 8-35 24l-181 329c7 12 101 178 283 499 9 16 21 24 34 24h129c15 0 24-14 16-28z" horiz-adv-x="750" />

<glyph glyph-name="instagram" unicode="&#xf16d;" d="M438 558c-124 0-225-101-225-225s101-224 225-224 224 100 224 224-100 225-224 225z m0-371c-81 0-146 66-146 146s65 146 146 146 146-65 146-146-66-146-146-146z m286 380c0-29-24-53-53-53s-52 24-52 53 23 52 52 52 53-23 53-52z m148-53c-3 70-19 132-70 183-52 51-114 67-184 71-72 4-289 4-361 0-70-4-132-20-183-71s-68-113-71-183c-4-72-4-289 0-361 3-70 19-132 71-184s113-67 183-70c72-5 289-5 361 0 70 3 132 19 184 70 51 52 67 114 70 184 4 72 4 288 0 361z m-93-439c-15-38-45-68-83-83-58-23-195-18-258-18s-201-5-258 18c-39 15-68 45-83 83-23 58-18 195-18 258s-5 201 18 258c15 39 44 68 83 83 57 23 194 18 258 18s200 5 258-18c38-15 68-44 83-83 23-57 18-194 18-258s5-200-18-258z" horiz-adv-x="875" />

<glyph glyph-name="flickr" unicode="&#xf16e;" d="M781 771h-687c-52 0-94-42-94-94v-688c0-52 42-94 94-94h687c52 0 94 42 94 94v688c0 52-42 94-94 94z m-499-561c-68 0-124 55-124 124s56 124 124 124 124-55 124-124-55-124-124-124z m311 0c-69 0-124 55-124 124s55 124 124 124 124-55 124-124-56-124-124-124z" horiz-adv-x="875" />

<glyph glyph-name="tumblr" unicode="&#xf173;" d="M605-105c-26-28-98-62-190-62-236 0-287 173-287 275v281h-93c-11 0-20 9-20 19v133c0 14 9 27 23 32 121 42 159 148 164 228 2 22 13 32 32 32h138c11 0 20-9 20-19v-225h162c11 0 19-9 19-20v-159c0-11-8-20-19-20h-163v-260c0-67 46-105 133-70 9 4 17 6 24 4 7-1 12-6 15-15l43-126c3-10 6-21-1-28z" horiz-adv-x="625" />

<glyph glyph-name="skype" unicode="&#xf17e;" d="M830 248c5 27 9 56 9 85 0 222-180 401-401 401-29 0-58-3-86-9-37 29-83 46-133 46-121 0-219-98-219-219 0-50 17-96 46-133-6-28-10-57-10-86 0-222 180-401 401-401 29 0 58 3 86 9 37-28 83-45 133-45 121 0 219 98 219 218 0 50-17 97-45 134z m-381-179c-128 0-235 57-235 127 0 31 18 60 58 60 61 0 66-88 172-88 50 0 82 22 82 51 0 37-31 42-82 55-122 30-230 43-230 170 0 116 115 159 213 159 108 0 217-43 217-109 0-33-22-62-59-62-56 0-57 66-147 66-50 0-82-14-82-44 0-39 41-43 135-65 81-18 177-52 177-151 0-116-111-169-219-169z" horiz-adv-x="875" />

<glyph glyph-name="vk" unicode="&#xf189;" d="M1065 603c7 25 0 43-35 43h-115c-30 0-43-16-50-33 0 0-59-143-142-235-26-27-39-36-53-36-8 0-19 9-19 33v228c0 29-8 43-32 43h-181c-18 0-29-14-29-27 0-28 41-34 45-112v-170c0-37-6-44-21-44-39 0-134 144-190 308-12 32-23 45-52 45h-115c-33 0-40-16-40-33 0-31 39-182 182-382 95-136 229-210 351-210 73 0 82 16 82 44 0 131-6 143 30 143 17 0 47-9 115-74 78-78 91-113 135-113h115c33 0 49 16 40 48-22 69-170 209-177 218-17 22-12 32 0 51 1 1 141 198 156 265z" horiz-adv-x="1125" />

<glyph glyph-name="google" unicode="&#xf1a0;" d="M953 322c0-277-189-473-469-473-268 0-484 216-484 484s216 484 484 484c131 0 241-47 325-126l-132-127c-172 166-493 41-493-231 0-169 135-306 300-306 192 0 264 138 275 209h-275v167h462c4-25 7-49 7-81z" horiz-adv-x="953.1" />

<glyph glyph-name="reddit" unicode="&#xf1a1;" d="M394 236c-27 0-49 22-49 48 0 27 22 49 49 49 26 0 48-22 48-49 0-26-22-48-48-48z m590 97c0-268-216-484-484-484s-484 216-484 484 216 484 484 484 484-216 484-484z m-258 81c-18 0-35-8-46-20-44 30-103 50-169 52l34 153 109-25c0-26 21-48 48-48s48 22 48 49-21 49-48 49c-19 0-36-12-44-27l-119 26c-6 2-12-2-14-8l-37-169c-65-3-123-22-167-52-12 12-29 20-47 20-68 0-90-92-28-123-2-10-3-20-3-30 0-103 115-186 257-186 143 0 259 83 259 186 0 10-1 21-4 30 61 32 39 123-29 123z m-135-227c-35-36-148-35-182 0-5 4-12 4-17 0-4-5-4-13 0-17 45-45 171-45 216 0 5 4 5 12 0 17-5 4-12 4-17 0z m15 146c-26 0-48-22-48-49 0-26 22-48 48-48 27 0 49 22 49 48 0 27-21 49-49 49z" horiz-adv-x="1000" />

<glyph glyph-name="yelp" unicode="&#xf1e9;" d="M82 364l194-95c38-19 32-74-8-84l-210-52c-27-7-53 11-55 38-7 58 0 114 17 167 9 25 38 37 62 26z m86-468c46-31 99-53 155-62 27-5 51 15 52 42l8 217c1 41-50 62-78 31l-145-161c-18-20-14-51 8-67z m284 215l115-184c14-23 45-28 66-10 44 36 79 81 103 132 11 24-1 53-27 61l-206 67c-39 13-73-31-51-66z m289 258c-23 53-57 99-98 136-20 17-51 13-66-9l-122-179c-23-35 10-80 50-68l208 59c26 8 39 37 28 61z m-622 405c-23-11-32-40-19-62l203-353c23-39 84-23 84 22v407c0 26-22 47-48 45-45-4-128-15-220-59z" horiz-adv-x="745.1" />

<glyph glyph-name="whatsapp" unicode="&#xf232;" d="M744 643c-82 82-191 128-307 128-239 0-433-195-433-434 0-76 20-151 58-217l-62-225 230 61c63-35 135-53 207-53v0c239 0 438 195 438 434 0 116-49 224-131 306z m-307-667c-64 0-128 18-183 50l-13 8-137-36 37 133-9 14c-36 58-55 124-55 192 0 199 162 360 361 360 96 0 186-37 254-105 68-69 110-159 110-255 0-199-166-361-365-361z m198 270c-11 6-64 32-74 35-10 4-17 6-24-5-8-11-28-35-35-43-6-7-12-8-23-2-64 31-106 56-148 128-11 20 11 18 32 60 4 7 2 13-1 19-3 5-24 58-33 80-9 21-18 18-25 19-6 0-13 0-20 0-8 0-19-3-29-14-10-10-38-37-38-90s39-105 44-112c5-7 76-117 185-164 69-29 96-32 130-27 21 3 64 26 73 52 9 25 9 47 7 51-3 5-10 8-21 13z" horiz-adv-x="875" />

<glyph glyph-name="tripadvisor" unicode="&#xf262;" d="M1033 484l92 100h-204c-100 69-224 111-358 111s-258-42-361-112l2 1h-204l92-100c-56-51-90-125-90-206 0-156 125-282 281-282 73 0 140 29 190 74l-1 0 91-98 90 98c50-46 117-75 191-75 155 0 281 126 281 281v0h0c0 0 0 1 0 1 0 82-36 156-92 207l0 0z m-752-398c-105 0-190 85-190 190s85 191 190 191c105 0 191-86 191-191v0c0-105-86-190-191-190v0z m282 196c0 125-92 232-212 278 63 27 135 43 212 43s148-16 214-44l-3 1c-120-46-211-153-211-278z m281-196h0c-106 0-191 85-191 190 0 105 85 191 191 191s190-86 190-191c0-105-85-190-190-190h0z m-563 290h0c-55 0-99-45-99-100s44-99 99-99c55 0 100 44 100 99v0 1c0 55-45 99-99 99-1 0-1 0-1 0h0z m563 0c-56 0-100-45-100-100s44-99 100-99c55 0 99 44 99 99v0c0 55-44 100-99 100v0z" horiz-adv-x="1125" />

<glyph glyph-name="vimeo-v" unicode="&#xf27d;" d="M875 533c-4-85-64-202-179-350-119-154-219-232-302-232-51 0-94 47-129 141-69 253-98 401-155 401-7 0-30-14-69-42l-41 54c101 88 197 186 257 192 69 7 110-40 126-140 56-354 81-408 183-247 37 58 56 102 59 132 9 89-70 83-124 60 43 141 126 210 247 206 89-3 132-61 127-175z" horiz-adv-x="875" />

<glyph glyph-name="facebook-f" unicode="&#xf39e;" d="M422 667h94v159c-17 2-72 7-137 7-136 0-229-83-229-235v-140h-150v-178h150v-447h183v447h144l23 178h-167v123c0 51 15 86 89 86z" horiz-adv-x="515.6" />

<glyph glyph-name="telegram-plane" unicode="&#xf3fe;" d="M873 640l-133-622c-9-44-35-55-72-34l-202 148-97-93c-10-11-19-20-40-20l14 205 373 337c16 14-3 22-25 8l-461-291-198 62c-44 14-44 44 9 64l776 299c36 14 67-8 56-63z" horiz-adv-x="875" />

<glyph glyph-name="youtube-square" unicode="&#xf431;" d="M365 438l186-105-186-106v211z m510 239v-688c0-52-42-94-94-94h-687c-52 0-94 42-94 94v688c0 52 42 94 94 94h687c52 0 94-42 94-94z m-82-345s0 117-15 173c-8 31-32 55-63 63-55 15-277 15-277 15s-223 0-278-15c-31-8-55-32-63-63-15-56-15-173-15-173s0-116 15-172c8-31 32-54 63-62 55-15 278-15 278-15s222 0 277 15c31 8 55 32 63 62 15 56 15 172 15 172z" horiz-adv-x="875" />
</font>
</defs>
</svg>
